img image001 image001 image001 image001 image001 image001 image001 image001 image001 image001 image001 image001 image001 image001 image001

Planets Sun Sun Sun
Статистика раздачи
Автор: Nickolas3434 | Размер: 5.7 ГБ | Добавлен: 25 сен 2014
Раздают: 171    Качают: 168
Скачать торрент
Скачать торрент
Описание торрента

СообщениеДобавлено: 25 сен 2014 

Информация о фильме
Оригинальное название: История: наука или вымысел?
Год выхода: 2009
Жанр: Документальный, научно-популярный
Режиссер: Алексей Кулагин, Юрий Елхов, Андрей Афанасов, Александр Лютенков, Анна Егорова, Юлия Коробко, Наталья Исакова
В ролях: Анатолий Фоменко, Глеб Носовский

О фильме:
На самом ли деле мировая история такая, как описана в учебниках истории? Цикл научно-популярных фильмов «История: наука или вымысел?» предлагаем взглянуть на историю под другим углом. Научные книги и музейные экспозиции, исторические романы и кинофильмы убеждают нас, что об истории человечества известно почти все и практически на любой вопрос пытливого разума у историков обязательно найдется готовый ответ. Однако если мы вглядимся в наше прошлом более пристально, то обнаружим там множество странностей и нестыковок. Почему, скажем, обычно внимательные к историческим деталям живописцы средневековья изображали библейских и античных персонажей, как своих современников? Как древние воины могли рубить своих врагов бронзовыми мечами, если бронзы в те времена еще не было? И откуда взялось в Древнем Египте оружие из железа? А на каком основании Иван Грозный называл себя прямым потомком римского императора Августа? Казалось бы, эти и многие другие загадки должны были заставить историков пристальнее вглядеться в наше прошлое. Но этого до сих пор не случилось, и потому невольно возникает вопрос: а действительно ли мы знаем свою историю?



Фильм 01. Знаем ли мы свою историю?
Фильм 02. На чем основана история.
Фильм 03. Истину можно вычислить.
Фильм 04. Алхимия Пирамид или как строили в древнем Египте.
Фильм 05. Тайна египетских зодиаков.
Фильм 06. Господин Великий Новгород, кто ты?
Фильм 07. Куликово поле. Битва за Москву.
Фильм 08. Русь-Орда.
Фильм 09. В каком веке жил Христос?
Фильм 10. Забытый Иерусалим.
Фильм 11. Московский Кремль.
Фильм 12. Реконструкция истории.
Фильм 13. Фальсификация письменной истории.
Фильм 14. Поделки и подделки.
Фильм 15. Три великие фальшивки.
Фильм 16. Иван Грозный.
Фильм 17. Смута.
Фильм 18. Первые Романовы.
Фильм 19. Как писали русскую историю.
Фильм 20. Радзивиловская летопись.
Фильм 21. Реформация.
Фильм 22. Солдаты Империи.
Фильм 23. Этруски - это русские.
Фильм 24. Символы Древнего Рима.

Страна: Россия
Студия: Кинокомпания "Godland Pictures"
Продолжительность: 24 x ~ 00:55:00
Перевод: Не требуется

Файл
Формат: MP4
Качество: DVDRip | КПК
Видео: MPEG-4 AVC (x264), 640x360, ~500 kbps, 25.000 fps
Аудио: AAC LC, 48.0 KHz, 2 ch, 128 Kbps
Субтитры: Нет

Семпл


Complete name : E:KinoIstoriya.Nauka.Ili.Vymysel.AVC.DVDRip.Kpk.GeneralfilmIstoriya.Nauka.Ili.Vymysel.S01.2009.AVC.DVDRip.KPK.GeneralfilmFilm.07.Kulikovo.Pole.Bitva.Za.Moskvu.AVC.DVDRip.KPK.Generalfilm.mp4
Format : MPEG-4
Format profile : Base Media
Codec ID : isom
File size : 237 MiB
Duration : 52mn 32s
Overall bit rate mode : Variable
Overall bit rate : 631 Kbps
Encoded date : UTC 2014-09-05 17:54:22
Tagged date : UTC 2014-09-05 17:54:22

Video
ID : 1
Format : AVC
Format/Info : Advanced Video Codec
Format profile : Baseline@L4.1
Format settings, CABAC : No
Format settings, ReFrames : 6 frames
Codec ID : avc1
Codec ID/Info : Advanced Video Coding
Duration : 52mn 32s
Bit rate : 500 Kbps
Maximum bit rate : 2 861 Kbps
Width : 640 pixels
Height : 360 pixels
Display aspect ratio : 16:9
Frame rate mode : Constant
Frame rate : 25.000 fps
Color space : YUV
Chroma subsampling : 4:2:0
Bit depth : 8 bits
Scan type : Progressive
Bits/(Pixel*Frame) : 0.087
Stream size : 188 MiB (79%)
Writing library : x264 core 119 r2106 07efeb4
Encoding settings : cabac=0 / ref=6 / deblock=1:-1:-1 / analyse=0x1:0x111 / me=umh / subme=7 / psy=1 / psy_rd=1.00:0.00 / mixed_ref=0 / me_range=16 / chroma_me=1 / trellis=1 / 8x8dct=0 / cqm=0 / deadzone=21,11 / fast_pskip=0 / chroma_qp_offset=-2 / threads=3 / sliced_threads=0 / nr=0 / decimate=1 / interlaced=0 / bluray_compat=0 / constrained_intra=0 / bframes=0 / weightp=0 / keyint=250 / keyint_min=25 / scenecut=40 / intra_refresh=0 / rc_lookahead=60 / rc=2pass / mbtree=1 / bitrate=500 / ratetol=1.0 / qcomp=0.60 / qpmin=0 / qpmax=69 / qpstep=4 / cplxblur=20.0 / qblur=0.5 / ip_ratio=1.40 / aq=1:1.00
Encoded date : UTC 2014-09-05 17:54:22
Tagged date : UTC 2014-09-05 17:55:09

Audio
ID : 2
Format : AAC
Format/Info : Advanced Audio Codec
Format profile : LC
Codec ID : 40
Duration : 52mn 32s
Bit rate mode : Variable
Bit rate : 128 Kbps
Maximum bit rate : 158 Kbps
Channel count : 2 channels
Channel positions : Front: L R
Sampling rate : 48.0 KHz
Compression mode : Lossy
Stream size : 48.1 MiB (20%)
Encoded date : UTC 2014-09-05 17:54:55
Tagged date : UTC 2014-09-05 17:55:09

Релиз от:



   Похожие торренты   Торрент   Размер 
В этой теме нет новых непрочитанных сообщений. История: наука или вымысел? [01-24 из 24] (2009-2011) DVDRip от Generalfilm

122 | 30

18.11 ГБ

В этой теме нет новых непрочитанных сообщений. История: Наука или Вымысел? [01-24] (2009-2011) DVDRip от newchrono

233 | 29

29.54 ГБ

В этой теме нет новых непрочитанных сообщений. История: Наука или Вымысел? (2009) DVDRip

9 | 13

11.54 ГБ

В этой теме нет новых непрочитанных сообщений. История: Наука или Вымысел? [12 серий] (2009) DVDRip

151 | 15

4.36 ГБ

В этой теме нет новых непрочитанных сообщений. История: Наука или Вымысел? [12 серий] (2009) DVDRip от Files-x

21 | 12

8.21 ГБ

В этой теме нет новых непрочитанных сообщений. История: Наука или Вымысел? [13-24] (2011) DVDRip от Files-x

25 | 14

9.49 ГБ

В этой теме нет новых непрочитанных сообщений. История: наука или вымысел? [24 фильма из 24] (2008-2011) DVDRip от MediaClub | КПК

500 | 571

5.69 ГБ




Вы не можете начинать темы
Вы не можете отвечать на сообщения
Вы не можете редактировать свои сообщения
Вы не можете удалять свои сообщения
Вы не можете добавлять вложения

Перейти:  
Для Мосгорсуда, Роскомнадзора и рекламодателей: mosgorsud-torrent[собачка]yandex.ru
 Вход
ppkBB3cker v.2 © 2008-2014 @ PPK
[ Time : 0.049s | 16 Queries | GZIP : Off ]

cron