img image001 image001 image001 image001 image001 image001 image001 image001 image001 image001 image001 image001 image001 image001 image001

Planets Sun Sun Sun
Статистика раздачи
Автор: Nickolas3434 | Размер: 14.9 ГБ | Добавлен: 29 окт 2014
Раздают: 53    Качают: 9
Скачать торрент
Скачать торрент
Описание торрента

СообщениеДобавлено: 29 окт 2014 


Название: Сокрытые миры
Оригинальное название: Hidden Kingdoms
Год выхода: 2014
Жанр: документальный
Режиссер: Саймон Белл, Гэвин Максвелл
В ролях: Саймон Белл, Гэвин Максвелл, Марк Пэйн-Гилл
Рассказчик: Владимир Курдов / Стивен Фрай
Страна: Италия, Канада, Франция, Великобритания
Производство: BBC Television Centre, CCTV-9, Discovery Channel
Продолжительность: 3 x ~ 00:51:00
Перевод: Авторский (одноголосый, закадровый) Владимир Курдов
Описание: Новый инновационный сериал от мастеров жанра канала ВВС. На этот раз мы не просто станем свидетелями жизни животных, а перенесемся в мир миниатюры, где маленькие существа борются за жизнь наравне с большими и сильными обитателями фауны. Мы увидим, как они видят нас. Сможем заметить, как от движений маленьких животных шевелятся травинки. Уникальный спектр съемки позволит уловить самые незаметные движения. Мы узнаем мир их глазами, в полной мере ощутив себя гостями парка Юрского периода. Леса Борнео, пустыни Африки и Аризоны, мрачные леса Северной Америки и даже городские джунгли Токио и Рио! Они повсюду, они живут по своим законам, но настало время раскрыть большие тайны маленьких существ и еще раз восхититься уникальной и мудрой природой нашей планеты.

Episode 1: Under Open Skies / Под открытым небом
Episode 2: Secret Forests / Скрытые леса / Таинственные леса
Episode 3: Urban Jungles / Городские джунгли

Формат: Matroska
Видео: 1920x1080 at 23.976 fps, x264@L4.1, ~10.2-12.7 Mbps avg
Аудио#1: Russian: 48 kHz/16-bit, AC3, 2.0 (L,R) ch, ~192 kbps avg |Авторский, Владимир Курдов|
Аудио#2: English: 48 kHz/16-bit, DTS, 3/2 (L,C,R,l,r) + LFE ch, ~1509 kbps avg |Stephen Fry|
Субтитры: Dutch

General
Unique ID : 238467972629208745296314231378191816042 (0xB36742CC126B8706986A34964DA7956A)
Complete name : Hidden.Kingdoms.2014.1080p.BluRay.Rus.Eng.HDCLUB/Secret.Forests.2014.1080p.BluRay.Rus.Eng.HDCLUB.mkv
Format : Matroska
Format version : Version 4 / Version 2
File size : 4.38 GiB
Duration : 51mn 36s
Overall bit rate : 12.1 Mbps
Movie name : Create by DeTorquemada for HDCLUB
Encoded date : UTC 2014-10-26 07:33:52
Writing application : mkvmerge v7.2.0 ('On Every Street') 64bit built on Sep 13 2014 15:52:10
Writing library : libebml v1.3.0 + libmatroska v1.4.1
Video
ID : 1
Format : AVC
Format/Info : Advanced Video Codec
Format profile : High@L4.1
Format settings, CABAC : Yes
Format settings, ReFrames : 4 frames
Codec ID : V_MPEG4/ISO/AVC
Duration : 51mn 36s
Bit rate : 10.2 Mbps
Width : 1 920 pixels
Height : 1 080 pixels
Display aspect ratio : 16:9
Frame rate mode : Constant
Frame rate : 23.976 fps
Color space : YUV
Chroma subsampling : 4:2:0
Bit depth : 8 bits
Scan type : Progressive
Bits/(Pixel*Frame) : 0.205
Stream size : 3.68 GiB (84%)
Title : Скрытые леса / Secret Forests (2014) - Release for HDCLUB
Writing library : x264 core 142 r2431 ac76440
Encoding settings : cabac=1 / ref=4 / deblock=1:-3:-3 / analyse=0x3:0x113 / me=umh / subme=10 / psy=1 / psy_rd=1.00:0.00 / mixed_ref=1 / me_range=48 / chroma_me=1 / trellis=2 / 8x8dct=1 / cqm=0 / deadzone=21,11 / fast_pskip=1 / chroma_qp_offset=-2 / threads=6 / lookahead_threads=1 / sliced_threads=0 / nr=0 / decimate=1 / interlaced=0 / bluray_compat=0 / constrained_intra=0 / bframes=3 / b_pyramid=2 / b_adapt=2 / b_bias=0 / direct=1 / weightb=1 / open_gop=0 / weightp=2 / keyint=240 / keyint_min=23 / scenecut=40 / intra_refresh=0 / rc_lookahead=65 / rc=crf / mbtree=0 / crf=18.0 / qcomp=0.60 / qpmin=0 / qpmax=69 / qpstep=4 / vbv_maxrate=50000 / vbv_bufsize=62500 / crf_max=0.0 / nal_hrd=none / filler=0 / ip_ratio=1.40 / pb_ratio=1.30 / aq=1:0.80
Language : English
Default : Yes
Forced : No
Matrix coefficients : BT.709
Audio #1
ID : 2
Format : AC-3
Format/Info : Audio Coding 3
Mode extension : CM (complete main)
Format settings, Endianness : Big
Codec ID : A_AC3
Duration : 51mn 36s
Bit rate mode : Constant
Bit rate : 192 Kbps
Channel(s) : 2 channels
Channel positions : Front: L R
Sampling rate : 48.0 KHz
Bit depth : 16 bits
Compression mode : Lossy
Stream size : 70.9 MiB (2%)
Title : 48KHz/16-bit, AC3, 2.0 (L,R) ch, 192 kbps - AVO V.Kurdov
Language : Russian
Default : Yes
Forced : No
Audio #2
ID : 3
Format : DTS
Format/Info : Digital Theater Systems
Mode : 16
Format settings, Endianness : Big
Codec ID : A_DTS
Duration : 51mn 36s
Bit rate mode : Constant
Bit rate : 1 509 Kbps
Channel(s) : 6 channels
Channel positions : Front: L C R, Side: L R, LFE
Sampling rate : 48.0 KHz
Bit depth : 16 bits
Compression mode : Lossy
Stream size : 557 MiB (12%)
Title : 48KHz/16-bit, DTS, 3/2 (L,C,R,l,r) + LFE ch, 1509 kbps - Stephen Fry
Language : English
Default : No
Forced : No
Text
ID : 4
Format : UTF-8
Codec ID : S_TEXT/UTF8
Codec ID/Info : UTF-8 Plain Text
Title : Subtitles/Captions
Language : Dutch
Default : No
Forced : No




   Похожие торренты   Торрент   Размер 
В этой теме нет новых непрочитанных сообщений. BBC: Сокрытые миры / Hidden Kingdoms [s01] (2014) BDRip 720p от HDClub

45 | 10

9.66 ГБ

В этой теме нет новых непрочитанных сообщений. BBC: Сокрытые миры / Hidden Kingdoms [s01] (2014) HDTVRip от NewStudio

204 | 70

1.61 ГБ

В этой теме нет новых непрочитанных сообщений. BBC: Сокрытые миры / Hidden Kingdoms [s01] (2014) HDTVRip 720p от NewStudio

202 | 75

2.66 ГБ

В этой теме нет новых непрочитанных сообщений. BBC: Сокрытые миры / BBC: Hidden Kingdoms [01x01-02 из 03] (2014) HDTVRip от ImperiaFilm

80 | 36

1.07 ГБ

В этой теме нет новых непрочитанных сообщений. Спрятанный в лесу / Hidden in the Woods (2014) BDRip 1080p | A

84 | 23

7.1 ГБ

В этой теме нет новых непрочитанных сообщений. Скрытый враг / Скрытые / The Hidden (1987) WEB-DL 720p от HDClub

15 | 7

3.63 ГБ

В этой теме нет новых непрочитанных сообщений. Параллельные миры / Upside Down (2012) BDRip 1080p

134 | 7

5.76 ГБ




Вы не можете начинать темы
Вы не можете отвечать на сообщения
Вы не можете редактировать свои сообщения
Вы не можете удалять свои сообщения
Вы не можете добавлять вложения

Перейти:  
Для Мосгорсуда, Роскомнадзора и рекламодателей: mosgorsud-torrent[собачка]yandex.ru
 Вход
ppkBB3cker v.2 © 2008-2014 @ PPK
[ Time : 0.039s | 14 Queries | GZIP : Off ]

Торрент трекер RUTOR.IN, Не можете зайти на rutor.org? Какой новый адрес рутор? Какое зеркало рутор? Не работает rutor.org и зеркала? Тогда наш торрент специально для вас. Rutor.in неофициальное зеркало rutor. В случае если у Вас заблокирован rutor или вдруг Вы не можете на него зайти, то Вы без труда сможете скачать бесплатно и без рекламы последние новинки кино, игр, сериалов и прочего у нас, на Rutor.in. Не нужно использовать прокси, чтобы зайти на рутор, достаточно воспользоваться нашим ресурсом. Все новые фильмы, игры, сериалы, книги и музыка за 2013 и 2014 годы через торрент бесплатно. Скачивайте фильмы в хорошем качестве, игры для пк, xbox, playstation без регистрации. У нас вы найдете новые Зарубежные сериалы и Русские сериалы 2013, 2014, 2015 годов. Оставайтесь с нами, качайте любимые фильмы, игры, сериалы, книги и музыку.