img image001 image001 image001 image001 image001 image001 image001 image001 image001 image001 image001 image001 image001 image001 image001 image001

Planets Sun Sun Sun
Статистика раздачи
Автор: Nickolas3434 | Размер: 702.94 МБ | Добавлен: 28 окт 2014
Раздают: 481    Качают: 27
Скачать торрент
Скачать торрент
Описание торрента

СообщениеДобавлено: 28 окт 2014 

Год выпуска: 2014
Страна: Россия
Жанр: Документальный
Продолжительность: 00:42:49
Перевод: Не требуется
Русские субтитры: нет
Режиссер: Борис Конухов
Описание: Есть место на земле, в далеких заветных краях. Загадочное место. Там пролегла таинственная, единственная в мире, небывалая тропа. Вознесенная на двухметровую высоту, окруженная глубоким рвом и валом, она запечатлелась на лике земли как некая святыня, как доступная каждому смертному драгоценность, которую, однако, нельзя похитить, как образ, который невозможно стереть с лица земли… Это место называется Дивеево. Здесь находится обитель, основанная великим русским святым Серафимом Саровским.
Как возникла обитель? Чему учил великий старец? Обо всем этом - документальный фильм "Великое чудо Серафима Саровского".
Качество: HDTVRip
Формат: AVI
Видео кодек: XviD
Аудио кодек: MP2
Видео: 720x400 (16:9), 25 fps, XviD build 73 ~2093 kbps avg, 0.291 bit/pixel
Аудио: 48 kHz, MPEG Layer 3, 2 ch, ~192.00 kbps
d:TempÂåëèêîå ÷óäî ïðåïîäîáíîãî Ñåðàôèìà Ñàðîâñêîãî.avi
General
Complete name : d:TempÂåëèêîå ÷óäî ïðåïîäîáíîãî Ñåðàôèìà Ñàðîâñêîãî.avi
Format : AVI
Format/Info : Audio Video Interleave
File size : 703 MiB
Duration : 42mn 49s
Overall bit rate : 2 295 Kbps
Writing application : VirtualDubMod 1.5.10.3 | www.virtualdub-fr.org || (build 2550/release)
Writing library : VirtualDubMod build 2550/release
Video #0
ID : 0
Format : MPEG-4 Visual
Format profile : Advanced Simple@L5
Format settings, BVOP : Yes
Format settings, QPel : No
Format settings, GMC : No warppoints
Format settings, Matrix : Custom
Codec ID : XVID
Codec ID/Hint : XviD
Duration : 42mn 49s
Bit rate : 2 093 Kbps
Width : 720 pixels
Height : 400 pixels
Display aspect ratio : 16:9
Frame rate : 25.000 fps
Resolution : 8 bits
Colorimetry : 4:2:0
Scan type : Progressive
Bits/(Pixel*Frame) : 0.291
Stream size : 641 MiB (91%)
Writing library : XviD 73
Audio #1
ID : 1
Format : MPEG Audio
Format version : Version 1
Format profile : Layer 2
Codec ID : 50
Duration : 42mn 49s
Bit rate mode : Constant
Bit rate : 192 Kbps
Channel(s) : 2 channels
Sampling rate : 48.0 KHz
Stream size : 58.8 MiB (8%)
Alignment : Aligned on interleaves
Interleave, duration : 40 ms (1.00 video frame)
Interleave, preload duration : 504 ms


Раздача от:



   Похожие торренты   Торрент   Размер 
В этой теме нет новых непрочитанных сообщений. Великое чудо Серафима Саровского (2014) HDTVRip от Generalfilm

282 | 41

533.07 МБ

В этой теме нет новых непрочитанных сообщений. Великое молчание / Великое безмолвие / Молчун / Il Grande silenzio / The Great silence (1968) DVDRip | SATKUR

70 | 28

1.46 ГБ

В этой теме нет новых непрочитанных сообщений. Великое прощание (1953) SATRip от New-Team

44 | 4

742.87 МБ

В этой теме нет новых непрочитанных сообщений. Великое прощание (1953) SATRip-AVC от New-Team

521 | 8

744.37 МБ

В этой теме нет новых непрочитанных сообщений. Мой маленький пони: Дружба – это чудо / My Little Pony: Friendship Is Magic [01-04x01-91] (2010-2014) DVDRip от New-Team | D

89 | 61

27.23 ГБ

В этой теме нет новых непрочитанных сообщений. Мой маленький пони: Дружба – это чудо / My Little Pony: Friendship Is Magic [01-04x01-91] (2010-2014) DVDRip-AVC от New-Team | D

367 | 360

27.24 ГБ

В этой теме нет новых непрочитанных сообщений. Рамзес II. Великое путешествие / Ramses II. Le Grand Voyage (2010) HDTVRip 720p | P2

65 | 3

1.64 ГБ




Вы не можете начинать темы
Вы не можете отвечать на сообщения
Вы не можете редактировать свои сообщения
Вы не можете удалять свои сообщения
Вы не можете добавлять вложения

Перейти:  
 Вход
ppkBB3cker v.2 © 2008-2014 @ PPK
[ Time : 0.031s | 16 Queries | GZIP : Off ]

cron