img image001 image001 image001 image001 image001 image001 image001 image001 image001 image001 image001 image001 image001 image001 image001

Planets Sun Sun Sun
Статистика раздачи
Автор: Nickolas3434 | Размер: 58.43 ГБ | Добавлен: 30 окт 2014
Раздают: 74    Качают: 54
Скачать торрент
Скачать торрент
Описание торрента

СообщениеДобавлено: 30 окт 2014 


Год выпуска: 2011-2012
Страна: Германия
Производство: ARTE, NDR Naturfilm, Rundfunk Berlin-Brandenburg (RBB)
Жанр: документальный
Продолжительность: 11 x ~ 00:43:00
Перевод: Авторский (одноголосый, закадровый) Юрий Сербин
Субтитры: нет
Режиссер: Christoph Hauschild, Thoralf Grospitz, Jens Westphalen, Klaus Weißmann, Jan Haft
В ролях: Karl-Heinz Funda, Sigrid Lumpe, Harald Wenske, Knud Knudsen, Gudrun Matthiesen, Hermann Matthiesen, Hans Friedrich Nissen, Falko Bindernagel
Рассказчик: Юрий Сербин / Hans-Peter Bögel, Martin Umbach, Axel Wostry, Wolf Frass, Gert Heidenreich
Описание: Сказочный пейзаж лесов реки Шпрее, стаи птиц Ваттового моря, меловые скалы на острове Рюген, поразительные пейзажи Шварцвальда и мощные горные хребты Берхтесгаденских Альп - все это показывает сериал "Дикая Германия". Уникальные ландшафты и дикие животные в различных природных ландшафтах Германии. С покадровым замедлением движение, плавными переходами камеры с необычных перспектив кинематографисты заботятся создать запоминающиеся образы. Никогда еще не виденые съемки с воздуха и под водой показывают уникальность и разнообразие биосферных заповедников и национальных парков.

Сезон 1:
1. Der Spreewald / The Spreewald / Леса реки Шпрее
2. Nordfriesland / North Frisia / Северная Фризия
3. Der Schwarzwald / The Black Forest / Шварцвальд
4. Nordpommerns Küste / North coast of Pomerania / Северное побережье Померании
5. Die Berchtesgadener Alpen / The Berchtesgaden Alps / Берхтесгаденские Альпы
6. Die Sächsische Schweiz / The Saxon Switzerland / Саксонская Швейцария
Сезон 2:
1. Der Thüringer Wald - Deutschlands grünes Herz / The Thuringian Forest - Germany's green heart / Леса Тюрингии - зеленое сердце
2. Der Pfälzerwald / The Palatine Forest / Леса Пфальца
3. Wilde Uckermark / Wild Uckermark / Дикая местность
4. Der Main - Deutschlands Mitte / The Main - Germany's middle / Центральная Германия
5. Der Bayerische Wald / The Bavarian Forest / Баварский лес
Формат: Matroska
Видео: 1920x1080 at 25.000 fps, x.264@L4.1, ~11.4-19.5 Mbps avg
Аудио#1: Russian: 48 kHz, AC3, 3/2 (L,C,R,l,r) + LFE ch, ~384.00 kbps avg |Авторский, Ю.Сербин|
Аудио#2: German: 48 kHz, AC3, 3/2 (L,C,R,l,r) + LFE ch, ~384.00 kbps avg |Hans-Peter Bögel|

General
Unique ID : 177223793440697605673951802459630252790 (0x85540FA1ECDF7E5BB2EA1445D59EB2F6)
Complete name : Wildes.Deutschland.S01-02.2011-2012.1080p.BluRay.Rus.Ger.HDCLUB/Wildes.Deutschland.S01E01.Der.Spreewald.2011.1080p.BluRay.Rus.Ger.HDCLUB.mkv
Format : Matroska
Format version : Version 4 / Version 2
File size : 6.29 GiB
Duration : 43mn 28s
Overall bit rate : 20.7 Mbps
Movie name : Create by DeTorquemada for HDCLUB
Encoded date : UTC 2014-10-23 14:26:45
Writing application : mkvmerge v7.2.0 ('On Every Street') 64bit built on Sep 13 2014 15:52:10
Writing library : libebml v1.3.0 + libmatroska v1.4.1
Video
ID : 1
Format : AVC
Format/Info : Advanced Video Codec
Format profile : High@L4.1
Format settings, CABAC : Yes
Format settings, ReFrames : 4 frames
Codec ID : V_MPEG4/ISO/AVC
Duration : 43mn 28s
Bit rate : 19.5 Mbps
Width : 1 920 pixels
Height : 1 080 pixels
Display aspect ratio : 16:9
Frame rate mode : Constant
Frame rate : 25.000 fps
Color space : YUV
Chroma subsampling : 4:2:0
Bit depth : 8 bits
Scan type : Progressive
Bits/(Pixel*Frame) : 0.377
Stream size : 5.93 GiB (94%)
Title : Wildes Deutschland. Season 1. Episode 1: Der Spreewald / The Spreewald / Леса реки Шпрее (2011) - Release for HDCLUB
Writing library : x264 core 142 r2431 ac76440
Encoding settings : cabac=1 / ref=4 / deblock=1:-3:-3 / analyse=0x3:0x113 / me=umh / subme=10 / psy=1 / psy_rd=1.00:0.00 / mixed_ref=1 / me_range=48 / chroma_me=1 / trellis=2 / 8x8dct=1 / cqm=0 / deadzone=21,11 / fast_pskip=1 / chroma_qp_offset=-2 / threads=6 / lookahead_threads=1 / sliced_threads=0 / nr=0 / decimate=1 / interlaced=0 / bluray_compat=0 / constrained_intra=0 / bframes=3 / b_pyramid=2 / b_adapt=2 / b_bias=0 / direct=1 / weightb=1 / open_gop=0 / weightp=2 / keyint=250 / keyint_min=25 / scenecut=40 / intra_refresh=0 / rc_lookahead=65 / rc=crf / mbtree=0 / crf=18.0 / qcomp=0.60 / qpmin=0 / qpmax=69 / qpstep=4 / vbv_maxrate=50000 / vbv_bufsize=62500 / crf_max=0.0 / nal_hrd=none / filler=0 / ip_ratio=1.40 / pb_ratio=1.30 / aq=1:0.80
Language : German
Default : Yes
Forced : No
Matrix coefficients : BT.709
Audio #1
ID : 2
Format : AC-3
Format/Info : Audio Coding 3
Mode extension : CM (complete main)
Format settings, Endianness : Big
Codec ID : A_AC3
Duration : 43mn 28s
Bit rate mode : Constant
Bit rate : 384 Kbps
Channel(s) : 6 channels
Channel positions : Front: L C R, Side: L R, LFE
Sampling rate : 48.0 KHz
Bit depth : 16 bits
Compression mode : Lossy
Stream size : 119 MiB (2%)
Title : 48KHz/16-bit, AC3, 3/2 (L,C,R,l,r) + LFE ch, 384 kbps - AVO, Y.Serbin
Language : Russian
Default : No
Forced : No
Audio #2
ID : 3
Format : AC-3
Format/Info : Audio Coding 3
Mode extension : CM (complete main)
Format settings, Endianness : Big
Codec ID : A_AC3
Duration : 43mn 28s
Bit rate mode : Constant
Bit rate : 384 Kbps
Channel(s) : 6 channels
Channel positions : Front: L C R, Side: L R, LFE
Sampling rate : 48.0 KHz
Bit depth : 16 bits
Compression mode : Lossy
Stream size : 119 MiB (2%)
Title : 48KHz/16-bit, AC3, 3/2 (L,C,R,l,r) + LFE ch, 384 kbps - Hans-Peter Bögel (erzähler)
Language : German
Default : No
Forced : No
Menu
00:00:00.000 : en:
00:01:08.960 : en:
00:11:36.079 : en:
00:20:09.359 : en:
00:30:45.360 : en:
00:42:51.480 : en:
00:43:26.400 : en:

by DeTorquemadaЦитатаКто-то писал:
Сохранены оригинальные чаптеры как на Blu-ray
Crop 0-8 pix на размер делать не стал, все серии будут 1920х1080
Сведение русской дороги - AndrewPlacid & sergey_n.
Озвучивание осуществлено в рамках сервиса "Озвучивание". Спонсоры: LibrarianA, Turko, Kacok_321, tambov68, farmazon, levanevski, lawyers, cat_davinchi, крестьянин, Воваростов, Васька64, jezburg68, deviator, yuriker, Cheetah, ABT, qwert54326, dasada, DeTorquemada, Soiree, Magal, Forlius, Snow_Leopard, Virusoff, Ser_Gio7171, Baron0580, gelom, banan58, fire_lizard, khapev2, NaIV, WHITESNAKEW и другие.
[*]Особая благодарность за спонсорскую помощь: tambov68 & fire_lizard.



   Похожие торренты   Торрент   Размер 
В этой теме нет новых непрочитанных сообщений. Дикая природа Скандинавии / Wildes Skandinavien / Wild Scandinavia [01-07 из 07] (2011) BDRip 1080p

3 | 3

31.56 ГБ

В этой теме нет новых непрочитанных сообщений. Дикая природа Скандинавии / Wildes Skandinavien [01-07 из 07] (2011) BDRip от ExKinoRay

2 | 7

4.44 ГБ

В этой теме нет новых непрочитанных сообщений. Дикая природа Скандинавии / Wildes Skandinavien [01-07 из 07] (2011) BDRip-AVC от ExKinoRay

2 | 5

8.18 ГБ

В этой теме нет новых непрочитанных сообщений. Дикая природа Скандинавии / Wildes Skandinavien / Wild Scandinavia [01-07 из 07] (2011) BDRip 720p

0 | 2

15.89 ГБ

В этой теме нет новых непрочитанных сообщений. Дикая Канада / Terra Mater: Wildes Kanada [01-04 из 04] (2014) BDRip 1080p от HDClub | P

44 | 19

20.92 ГБ

В этой теме нет новых непрочитанных сообщений. Дикая природа Скандинавии / Wildes Skandinavien [01-07 из 07] (2011) HDRip от R.G.RealMT

3 | 38

4.91 ГБ

В этой теме нет новых непрочитанных сообщений. Дикая природа Скандинавии / Wildes Skandinavien / Wild Scandinavia [01 диск из 02] (2011) Blu-Ray

0 | 12

21.55 ГБ




Вы не можете начинать темы
Вы не можете отвечать на сообщения
Вы не можете редактировать свои сообщения
Вы не можете удалять свои сообщения
Вы не можете добавлять вложения

Перейти:  
Для Мосгорсуда, Роскомнадзора и рекламодателей: mosgorsud-torrent[собачка]yandex.ru
 Вход
ppkBB3cker v.2 © 2008-2014 @ PPK
[ Time : 0.021s | 14 Queries | GZIP : On ]

Торрент трекер RUTOR.IN, Не можете зайти на rutor.org? Какой новый адрес рутор? Какое зеркало рутор? Не работает rutor.org и зеркала? Тогда наш торрент специально для вас. Rutor.in неофициальное зеркало rutor. В случае если у Вас заблокирован rutor или вдруг Вы не можете на него зайти, то Вы без труда сможете скачать бесплатно и без рекламы последние новинки кино, игр, сериалов и прочего у нас, на Rutor.in. Не нужно использовать прокси, чтобы зайти на рутор, достаточно воспользоваться нашим ресурсом. Все новые фильмы, игры, сериалы, книги и музыка за 2013 и 2014 годы через торрент бесплатно. Скачивайте фильмы в хорошем качестве, игры для пк, xbox, playstation без регистрации. У нас вы найдете новые Зарубежные сериалы и Русские сериалы 2013, 2014, 2015 годов. Оставайтесь с нами, качайте любимые фильмы, игры, сериалы, книги и музыку.