img image001 image001 image001 image001 image001 image001 image001 image001 image001 image001 image001 image001 image001 image001 image001

Planets Sun Sun Sun
Статистика раздачи
Автор: Nickolas3434 | Размер: 1.65 ГБ | Добавлен: 31 окт 2014
Раздают: 40    Качают: 4
Скачать торрент
Скачать торрент
Описание торрента

СообщениеДобавлено: 31 окт 2014 

В погоне за НЛО: Маленький пришелец / Chasing UFOs: Alien Baby Farm.

Год выпуска: 2012
Страна: США
Жанр: Документальный
Продолжительность: 00:44:42
Перевод: Профессиональный (одноголосый) А.Гаврилин
Описание: Команда квалифицированных исследователей ставит своей целью раскрыть правду об НЛО. Но они не просто ищут истории о внеземной деятельности - они хотят получить и ответы на эти вопросы. Группа ученыи и исследователей НЛО расследуют некоторые из наиболее загадочных наблюдений на планете, чтобы найти новые ошеломляющие доказательства. Данные, которые они собирают открывают совершенно новую картину того, что мы знаем про эти странные огни в небе.
Качество: HDTV 1080i [DeadmauvladTV]
Формат: ts
Видео кодек: AVC
Аудио кодек: AC3 [D.D 5.1]
Видео: AVC, 1920x1080 (16:9), 4 617 Kbps
Аудио: AC-3, 48.0 KHz, 5 ch, 384 Kbps, CBR (Russian)
Код:
Chasing.UFOs.Alien.Baby.Farm.HDTV.1080i.by.DeadmauvladTV.ts
Формат                                   : MPEG-TS
Размер файла                             : 1,65 Гбайт
Продолжительность                        : 44 м.
Режим общего битрейта                    : Переменный
Общий поток                              : 5265 Кбит/сек
Максимальный общий битрейт               : 35,5 Мбит/сек
Видео
Идентификатор                            : 4113 (0x1011)
Идентификатор меню                       : 1 (0x1)
Формат                                   : AVC
Формат/Информация                        : Advanced Video Codec
Профиль формата                          : High@L4.0
Параметр CABAC формата                   : Да
Параметр ReFrames формата                : 4 кадра
Идентификатор кодека                     : 27
Продолжительность                        : 44 м.
Вид битрейта                             : Переменный
Битрейт                                  : 4617 Кбит/сек
Максимальный битрейт                     : 5000 Кбит/сек
Ширина                                   : 1920 пикселей
Высота                                   : 1080 пикселей
Соотношение сторон                       : 16:9
Режим частоты кадров                     : Переменный
Цветовое пространство                    : YUV
Субдискретизация насыщенности            : 4:2:0
Битовая глубина                          : 8 бит
Тип развёртки                            : MBAFF
Размер потока                            : 1,45 Гбайт (88%)
Аудио
Идентификатор                            : 4352 (0x1100)
Идентификатор меню                       : 1 (0x1)
Формат                                   : AC-3
Формат/Информация                        : Audio Coding 3
Расширение режима                        : CM (complete main)
Параметр Endianness формата              : Big
Идентификатор кодека                     : 129
Продолжительность                        : 44 м.
Вид битрейта                             : Постоянный
Битрейт                                  : 384 Кбит/сек
Каналы                                   : 5 каналов
Расположение каналов                     : Front: L C R, Side: L R
Частота                                  : 48,0 КГц
Битовая глубина                          : 16 бит
Метод сжатия                             : С потерями
Размер потока                            : 123 Мбайт (7%)
Язык                                     : Russian


У меня на плеере высветилось что работает все 5,1 каналов однако ми показывает 5 каналов ровно (куда-то потерял 0.1 канал ) не в курсе почему , так что не обращайте внимания это полноценный 5-ти канальный качественный звук

P.S При перезаливе а также использовании данной записи в качестве исходника для рипов просьба указывать автора
Rip by Deadmauvlad



   Похожие торренты   Торрент   Размер 
В этой теме нет новых непрочитанных сообщений. В погоне за НЛО: Маленький пришелец / Chasing UFOs: Alien Baby Farm (2012) HDTVRip от Deadmauvlad

307 | 25

478.05 МБ

В этой теме нет новых непрочитанных сообщений. National Geographic: В погоне за НЛО: Летающие тарелки в Техасе / Chasing UFO's : UFO sightings in Texas (2012) SATRip by Alex Smit

2 | 17

661.4 МБ

В этой теме нет новых непрочитанных сообщений. В погоне за Эми / Chasing Amy (1997) BDRip-AVC | P2, A, L1

8 | 1

4.13 ГБ

В этой теме нет новых непрочитанных сообщений. В погоне за Эми / Chasing Amy (1997) BDRip-AVC | P

82 | 55

2.75 ГБ

В этой теме нет новых непрочитанных сообщений. В погоне за Эми / Chasing Amy (1997) BDRip от HQCLUB

75 | 4

2.18 ГБ

В этой теме нет новых непрочитанных сообщений. В погоне за Эми / Chasing Amy (1997) BDRip от HELLYWOOD

85 | 3

2.18 ГБ

В этой теме нет новых непрочитанных сообщений. В погоне за Эми / Chasing Amy (1997) HDRip от Scarabey | P

54 | 7

744.96 МБ




Вы не можете начинать темы
Вы не можете отвечать на сообщения
Вы не можете редактировать свои сообщения
Вы не можете удалять свои сообщения
Вы не можете добавлять вложения

Перейти:  
Для Мосгорсуда, Роскомнадзора и рекламодателей: mosgorsud-torrent[собачка]yandex.ru
 Вход
ppkBB3cker v.2 © 2008-2014 @ PPK
[ Time : 0.610s | 15 Queries | GZIP : Off ]

Торрент трекер RUTOR.IN, Не можете зайти на rutor.org? Какой новый адрес рутор? Какое зеркало рутор? Не работает rutor.org и зеркала? Тогда наш торрент специально для вас. Rutor.in неофициальное зеркало rutor. В случае если у Вас заблокирован rutor или вдруг Вы не можете на него зайти, то Вы без труда сможете скачать бесплатно и без рекламы последние новинки кино, игр, сериалов и прочего у нас, на Rutor.in. Не нужно использовать прокси, чтобы зайти на рутор, достаточно воспользоваться нашим ресурсом. Все новые фильмы, игры, сериалы, книги и музыка за 2013 и 2014 годы через торрент бесплатно. Скачивайте фильмы в хорошем качестве, игры для пк, xbox, playstation без регистрации. У нас вы найдете новые Зарубежные сериалы и Русские сериалы 2013, 2014, 2015 годов. Оставайтесь с нами, качайте любимые фильмы, игры, сериалы, книги и музыку.