img image001 image001 image001 image001 image001 image001 image001 image001 image001 image001 image001 image001 image001 image001 image001

Planets Sun Sun Sun
Статистика раздачи
Автор: Nickolas3434 | Размер: 1.27 ГБ | Добавлен: 03 ноя 2014
Раздают: 102    Качают: 6
Скачать торрент
Скачать торрент
Описание торрента

СообщениеДобавлено: 03 ноя 2014 

Оригинальное название: Версия альтернативная: Первый выстрел Первой мировой
Год выхода: 2014
Жанр: Документальный, война, историческое исследование
Режиссер: Сергей Ильин-Козловский
О фильме: Впервые озвучивается версия подлинной подоплёки убийства Франца Фердинанда, ставшего причиной начала конфликта мирового масштаба. На протяжении последних ста лет человечество не знало, как и почему началась Первая мировая война, коренным образом изменившая ход развития нашей цивилизации. На протяжении ста лет историки вместе с мировой общественностью искренне верили, что роковые выстрелы были произведены боснийским террористом Гаврилой Принципом. На самом деле всё было не так. 28 июня 1914 года в Сараево находились, как минимум девять желающих убить эрцгерцога. Как мы знаем, одному из них это удалось.
Страна: Россия
Студия: МедиаГрупп
Продолжительность: 00:51:49
Язык: Русский
Кодек: MPEG-4 AVC
Качество: HDTVRip 720p
Видео: 1280x720, 3132 Кбит/с, 25.000 fps
Звук: AC3, 6 ch, 384 Кбит/с
Семпл
Общее
Уникальный идентификатор : 194276860515209195085958071457827126763 (0x92285CC0CAD9DB95966300A7824DFDEB)
Полное имя : I:Первый выстрел первой мировой.2014.x264.HDTVRip.(720p).mkv
Формат : Matroska
Версия формата : Version 4 / Version 2
Размер файла : 1,27 Гбайт
Продолжительность : 51 м.
Общий поток : 3517 Кбит/сек
Название фильма : The first shot of the IWW / 2014 / Rip by PowerRock
Дата кодирования : UTC 2014-11-01 17:06:34
Программа кодирования : mkvmerge v6.7.0 ('Back to the Ground') 32bit built on Jan 8 2014 15:03:17
Библиотека кодирования : libebml v1.3.0 + libmatroska v1.4.1
Видео
Идентификатор : 1
Формат : AVC
Формат/Информация : Advanced Video Codec
Профиль формата : High@L4.1
Параметр CABAC формата : Да
Параметр ReFrames формата : 7 кадров
Идентификатор кодека : V_MPEG4/ISO/AVC
Продолжительность : 51 м.
Битрейт : 3132 Кбит/сек
Ширина : 1280 пикселей
Высота : 720 пикселей
Соотношение сторон : 16:9
Режим частоты кадров : Постоянный
Частота кадров : 25,000 кадров/сек
Цветовое пространство : YUV
Субдискретизация насыщенности : 4:2:0
Битовая глубина : 8 бит
Тип развёртки : Прогрессивная
Бит/(Пиксели*Кадры) : 0.136
Размер потока : 1,11 Гбайт (87%)
Заголовок : The first shot of the IWW / 2014
Библиотека кодирования : x264 core 125 r2200 999b753
Настройки программы : cabac=1 / ref=7 / deblock=1:-2:-1 / analyse=0x3:0x133 / me=umh / subme=10 / psy=1 / psy_rd=1.00:0.10 / mixed_ref=1 / me_range=24 / chroma_me=1 / trellis=2 / 8x8dct=1 / cqm=0 / deadzone=21,11 / fast_pskip=0 / chroma_qp_offset=-3 / threads=6 / lookahead_threads=1 / sliced_threads=0 / nr=0 / decimate=1 / interlaced=0 / bluray_compat=0 / constrained_intra=0 / bframes=5 / b_pyramid=2 / b_adapt=2 / b_bias=0 / direct=3 / weightb=1 / open_gop=0 / weightp=2 / keyint=250 / keyint_min=23 / scenecut=40 / intra_refresh=0 / rc_lookahead=50 / rc=2pass / mbtree=1 / bitrate=3132 / ratetol=1.0 / qcomp=0.60 / qpmin=10 / qpmax=51 / qpstep=4 / cplxblur=20.0 / qblur=0.5 / ip_ratio=1.40 / aq=1:1.00
Default : Да
Forced : Нет
Аудио
Идентификатор : 2
Формат : AC-3
Формат/Информация : Audio Coding 3
Расширение режима : CM (complete main)
Параметр Endianness формата : Big
Идентификатор кодека : A_AC3
Продолжительность : 51 м.
Вид битрейта : Постоянный
Битрейт : 384 Кбит/сек
Каналы : 6 каналов
Расположение каналов : Front: L C R, Side: L R, LFE
Частота : 48,0 КГц
Битовая глубина : 16 бит
Метод сжатия : С потерями
Размер потока : 142 Мбайт (11%)
Язык : Russian
Default : Да
Forced : Нет






   Похожие торренты   Торрент   Размер 
В этой теме нет новых непрочитанных сообщений. Первый выстрел Первой мировой (2014) HDTVRip-AVC от KinoHitHD

16 | 0

694.62 МБ

В этой теме нет новых непрочитанных сообщений. Viasat History: Великий подвиг шахтеров в Первой мировой войне / The Great Underground War (2014) SATRip

35 | 4

3.06 ГБ

В этой теме нет новых непрочитанных сообщений. Забытые фотографии Первой мировой войны / Hidden Histories: WW1's Forgotten Photographs (2014) IPTVRip от Pshichko66

132 | 5

899.72 МБ

В этой теме нет новых непрочитанных сообщений. Крылья Первой мировой / Wings Of War (2004) PC

22 | 5

1.27 ГБ

В этой теме нет новых непрочитанных сообщений. Орлы Первой мировой / First Eagles: The Great Air War 1918 (2006) PC

2 | 4

523.34 МБ

В этой теме нет новых непрочитанных сообщений. Крылья Первой мировой / Wings Of War (2004) PC | RePack от Fenixx

10 | 2

915.08 МБ

В этой теме нет новых непрочитанных сообщений. Фотографии - Первой мировой войны [516x490-972x578] [4978шт.] (2011) JPG

21 | 4

520.11 МБ




Вы не можете начинать темы
Вы не можете отвечать на сообщения
Вы не можете редактировать свои сообщения
Вы не можете удалять свои сообщения
Вы не можете добавлять вложения

Перейти:  
Для Мосгорсуда, Роскомнадзора и рекламодателей: mosgorsud-torrent[собачка]yandex.ru
 Вход
ppkBB3cker v.2 © 2008-2014 @ PPK
[ Time : 0.053s | 15 Queries | GZIP : Off ]

Торрент трекер RUTOR.IN, Не можете зайти на rutor.org? Какой новый адрес рутор? Какое зеркало рутор? Не работает rutor.org и зеркала? Тогда наш торрент специально для вас. Rutor.in неофициальное зеркало rutor. В случае если у Вас заблокирован rutor или вдруг Вы не можете на него зайти, то Вы без труда сможете скачать бесплатно и без рекламы последние новинки кино, игр, сериалов и прочего у нас, на Rutor.in. Не нужно использовать прокси, чтобы зайти на рутор, достаточно воспользоваться нашим ресурсом. Все новые фильмы, игры, сериалы, книги и музыка за 2013 и 2014 годы через торрент бесплатно. Скачивайте фильмы в хорошем качестве, игры для пк, xbox, playstation без регистрации. У нас вы найдете новые Зарубежные сериалы и Русские сериалы 2013, 2014, 2015 годов. Оставайтесь с нами, качайте любимые фильмы, игры, сериалы, книги и музыку.