img image001 image001 image001 image001 image001 image001 image001 image001 image001 image001 image001 image001 image001 image001 image001

Planets Sun Sun Sun
Статистика раздачи
Автор: Nickolas3434 | Размер: 4.66 ГБ | Добавлен: 07 ноя 2014
Раздают: 57    Качают: 3
Скачать торрент
Скачать торрент
Описание торрента

СообщениеДобавлено: 07 ноя 2014 

Артефакт / Artifact


Год выпуска: 2012
Страна: США
Жанр: документальный, музыка
Продолжительность: 01:43:44
Перевод: |Субтитры|
Субтитры: русские (Rus Sub)

Режиссер: Джаред Лето / Jared Leto

В ролях: Джаред Лето (играет самого себя), Шеннон Лето (играет самого себя), Томо Миличевич (играет самого себя), Ирвинг Азофф (играет самого себя - интервьюируемый), Честер Беннингтон (играет самого себя - интервьюируемый), Брэндон Бойд (играет самого себя - интервьюируемый), Анджелика Коб-Балер (играет саму себя - интервьюируемая), Сонни ДиПерри (играет самого себя - интервьюируемый), Дэниэл Эк (играет самого себя - интервьюируемый), Роберт Эзрин (играет самого себя - интервьюируемый), Флэйвор Флэв (играет самого себя - Cameo), Джейсон Флом (играет самого себя - интервьюируемый)


Описание:
Рассказывая горькую правду о современном музыкальном бизнесе, «Артефакт» предоставляет близкий доступ к музыканту/актёру Джареду Лето и его группе Thirty Seconds to Mars, в то время как они ведут борьбу со своим лейблом, предъявившим группе безжалостный судебный иск, и записывают свой альбом This Is War. Этот фильм - истинный артефакт нашего времени, поскольку в нём рассматривается борьба с важными проблемами, связанными с искусством, деньгами и честностью.


Рейтинг



Качество: BDRip 720p|Исходник: ARTIFACT_HDCLUB
Формат: MKV
Видео кодек: AVC
Аудио кодек: AC3
Видео: AVC, 1280x720 (16:9), 5991 kbps, 23,976 fps, 0,271 bpp
Аудио: английский / AC3 / 2.0 / 48 kHz / 448 kbps / 16 bit


Оформление: Messa-fan
Рип: by Messa-fan
ЦитатаКто-то писал:
Перевод подготовлен:
Red Alert, Rikki Franko,
Катерина Зайчук, Ksiysha Chmil
Субтитры: Анастасия
Долгашова, Татьяна Долгашова
Синхронизация: messafan
x264 [info]: frame I:1054 Avg QP:15.53 size:121927
x264 [info]: frame P:31894 Avg QP:18.99 size: 45873
x264 [info]: frame B:116284 Avg QP:20.17 size: 26318
x264 [info]: consecutive B-frames: 2.8% 3.7% 6.6% 15.8% 15.0% 35.7% 8.3% 2.6% 2.6% 1.4% 0.9% 3.2% 1.6%
General
Unique ID : 171531847529385987840340533566152263219 (0x810BD508429E0C5797EFB78A409A4633)
Complete name : Artifact.2012.BDRip.720p.Eng.Sub.mkv
Format : Matroska
Format version : Version 4 / Version 2
File size : 4.66 GiB
Duration : 1h 43mn
Overall bit rate : 6 429 Kbps
Movie name : Artifact (2012) 720 BDRip by Messafan
Encoded date : UTC 2014-11-05 19:55:25
Writing application : mkvmerge v6.7.0 ('Back to the Ground') 64bit built on Jan 8 2014 15:10:52
Writing library : libebml v1.3.0 + libmatroska v1.4.1
Video
ID : 1
Format : AVC
Format/Info : Advanced Video Codec
Format profile : High@L4.1
Format settings, CABAC : Yes
Format settings, ReFrames : 9 frames
Codec ID : V_MPEG4/ISO/AVC
Duration : 1h 43mn
Bit rate : 5 991 Kbps
Width : 1 280 pixels
Height : 720 pixels
Display aspect ratio : 16:9
Frame rate : 23.976 fps
Color space : YUV
Chroma subsampling : 4:2:0
Bit depth : 8 bits
Scan type : Progressive
Bits/(Pixel*Frame) : 0.271
Stream size : 4.24 GiB (91%)
Title : Artifact (2012) 720 BDRip by Messafan
Writing library : x264 core 142 r2479kMod dd79a61
Encoding settings : cabac=1 / ref=9 / deblock=1:-3:-3 / analyse=0x3:0x113 / me=umh / subme=10 / psy=1 / fade_compensate=0.00 / psy_rd=1.00:0.00 / mixed_ref=1 / me_range=32 / chroma_me=1 / trellis=2 / 8x8dct=1 / cqm=0 / deadzone=21,11 / fast_pskip=0 / chroma_qp_offset=-4 / threads=6 / lookahead_threads=1 / sliced_threads=0 / nr=0 / decimate=1 / interlaced=0 / bluray_compat=0 / constrained_intra=0 / fgo=0 / bframes=12 / b_pyramid=2 / b_adapt=2 / b_bias=0 / direct=3 / weightb=1 / open_gop=0 / weightp=1 / keyint=240 / keyint_min=23 / scenecut=40 / intra_refresh=0 / rc_lookahead=60 / rc=2pass / mbtree=1 / bitrate=5991 / ratetol=1.0 / qcomp=0.80 / qpmin=0 / qpmax=69 / qpstep=4 / cplxblur=20.0 / qblur=0.5 / vbv_maxrate=50000 / vbv_bufsize=62500 / nal_hrd=none / filler=0 / ip_ratio=1.40 / aq=1:0.80
Language : English
Default : Yes
Forced : No
Audio
ID : 2
Format : AC-3
Format/Info : Audio Coding 3
Mode extension : CM (complete main)
Codec ID : A_AC3
Duration : 1h 43mn
Bit rate mode : Constant
Bit rate : 448 Kbps
Channel(s) : 2 channels
Channel positions : Front: L R
Sampling rate : 48.0 KHz
Bit depth : 16 bits
Compression mode : Lossy
Stream size : 332 MiB (7%)
Title : English AC3 2.0 @ 448 kbps
Language : English
Default : Yes
Forced : No
Text
ID : 3
Format : UTF-8
Codec ID : S_TEXT/UTF8
Codec ID/Info : UTF-8 Plain Text
Title : Rus Sub
Language : Russian
Default : Yes
Forced : No







   Похожие торренты   Торрент   Размер 
В этой теме нет новых непрочитанных сообщений. Артефакт / 30 seconds to mars - Artifact (2012) BDRip 720p | Sub

86 | 3

3.79 ГБ

В этой теме нет новых непрочитанных сообщений. Артефакт / 30 Seconds to mars - Artifact (2012) HDrip 720p | Русская озвучка

107 | 10

1.98 ГБ

В этой теме нет новых непрочитанных сообщений. Sanity: Aiken's Artifact (2000) PC

0 | 3

618.67 МБ

В этой теме нет новых непрочитанных сообщений. Sanity: Aiken's Artifact (2000) PC | RePack от Pilotus

0 | 2

268.17 МБ

В этой теме нет новых непрочитанных сообщений. Артефакт (2009) DVDRip

12 | 17

699.94 МБ

В этой теме нет новых непрочитанных сообщений. Артефакт (2009) DVDRip

28 | 6

1.37 ГБ

В этой теме нет новых непрочитанных сообщений. Артефакт / Wishcraft (2001) DVDRip

6 | 5

744.39 МБ




Вы не можете начинать темы
Вы не можете отвечать на сообщения
Вы не можете редактировать свои сообщения
Вы не можете удалять свои сообщения
Вы не можете добавлять вложения

Перейти:  
Для Мосгорсуда, Роскомнадзора и рекламодателей: mosgorsud-torrent[собачка]yandex.ru
 Вход
ppkBB3cker v.2 © 2008-2014 @ PPK
[ Time : 0.052s | 15 Queries | GZIP : Off ]

Торрент трекер RUTOR.IN, Не можете зайти на rutor.org? Какой новый адрес рутор? Какое зеркало рутор? Не работает rutor.org и зеркала? Тогда наш торрент специально для вас. Rutor.in неофициальное зеркало rutor. В случае если у Вас заблокирован rutor или вдруг Вы не можете на него зайти, то Вы без труда сможете скачать бесплатно и без рекламы последние новинки кино, игр, сериалов и прочего у нас, на Rutor.in. Не нужно использовать прокси, чтобы зайти на рутор, достаточно воспользоваться нашим ресурсом. Все новые фильмы, игры, сериалы, книги и музыка за 2013 и 2014 годы через торрент бесплатно. Скачивайте фильмы в хорошем качестве, игры для пк, xbox, playstation без регистрации. У нас вы найдете новые Зарубежные сериалы и Русские сериалы 2013, 2014, 2015 годов. Оставайтесь с нами, качайте любимые фильмы, игры, сериалы, книги и музыку.