img image001 image001 image001 image001 image001 image001 image001 image001 image001 image001 image001 image001 image001 image001 image001

Planets Sun Sun Sun
Статистика раздачи
Автор: Nickolas3434 | Размер: 3.06 ГБ | Добавлен: 12 ноя 2014
Раздают: 134    Качают: 25
Скачать торрент
Скачать торрент
Описание торрента

СообщениеДобавлено: 12 ноя 2014 

Название: BBC. Европа. История континента
Оригинальное название: BBC. Wild Europe
Год выхода: 2005
Жанр: Документальный, научно-познавательный, геология, история, природа, география
Режиссер: Иан Грэй
О фильме: Этот фильм - грандиозное путешествие на три миллиарда лет назад, во времена Ледникового Периода и задолго до появления первого большого города. Вы сможете увидеть развитие континента от самого зарождения до наших дней. Проследите за основными событиями, которые сформировали пейзажи и дикую природу Европы. Ни один другой континент не может похвастаться таким разнообразием пейзажей и дикой природы, расположенных в одном маленьком месте. Так что же определило это невероятное разнообразие? Потрясающая работа британских ученых, основанная на детальном и всестороннем изучении минувших эпох, а так же самые последние достижения компьютерной и кинематографической техники позволят вам взглянуть на происходящее глазами первобытных людей! Испытайте на себе дикий мир Европы!
Страна: Великобритания
Студия: BBC
Продолжительность: 4 х ~ 00:49:00
Перевод: Профессиональный одноголосый
Кодек: MPEG-4 AVC
Качество: DVDRip-AVC
Видео: 1024x574, ~ 1850 Кбит/с, 25,000 fps
Звук: Русский, английский (АС3, 2 ch, 192 Кбит/с)
Субтитры: Русские
Семпл
01. Возникновение / Genesis
02. Ледниковый период / Ice ages
03. Покорение природы / Taming the wild
04. Новое тысячелетие / A New Millenium
Общее
Уникальный идентификатор : 172779866212374558867292952179472716227 (0x81FC311AA0CE2841BD399C638011D1C3)
Полное имя : H:BBC.Wild.Europe.2005.x264.DVDRip.(AVC)\02.Ice ages.mkv
Формат : Matroska
Версия формата : Version 4 / Version 2
Размер файла : 782 Мбайт
Продолжительность : 49 м.
Общий поток : 2232 Кбит/сек
Название фильма : BBC: Wild Europe / Ice ages / 2005 / Rip by PowerRock
Дата кодирования : UTC 2014-11-07 11:55:36
Программа кодирования : mkvmerge v6.7.0 ('Back to the Ground') 32bit built on Jan 8 2014 15:03:17
Библиотека кодирования : libebml v1.3.0 + libmatroska v1.4.1
Видео
Идентификатор : 1
Формат : AVC
Формат/Информация : Advanced Video Codec
Профиль формата : High@L4.1
Параметр CABAC формата : Да
Параметр ReFrames формата : 7 кадров
Идентификатор кодека : V_MPEG4/ISO/AVC
Продолжительность : 49 м.
Битрейт : 1846 Кбит/сек
Ширина : 1024 пикселя
Высота : 574 пикселя
Соотношение сторон : 16:9
Режим частоты кадров : Постоянный
Частота кадров : 25,000 кадров/сек
Цветовое пространство : YUV
Субдискретизация насыщенности : 4:2:0
Битовая глубина : 8 бит
Тип развёртки : Прогрессивная
Бит/(Пиксели*Кадры) : 0.126
Размер потока : 632 Мбайт (81%)
Заголовок : BBC: Wild Europe / Ice ages / 2005
Библиотека кодирования : x264 core 130 r2273 b3065e6
Настройки программы : cabac=1 / ref=7 / deblock=1:-2:-1 / analyse=0x3:0x133 / me=umh / subme=10 / psy=1 / psy_rd=1.00:0.10 / mixed_ref=1 / me_range=24 / chroma_me=1 / trellis=2 / 8x8dct=1 / cqm=0 / deadzone=21,11 / fast_pskip=0 / chroma_qp_offset=-3 / threads=6 / lookahead_threads=1 / sliced_threads=0 / nr=0 / decimate=1 / interlaced=0 / bluray_compat=0 / constrained_intra=0 / bframes=5 / b_pyramid=2 / b_adapt=2 / b_bias=0 / direct=3 / weightb=1 / open_gop=0 / weightp=2 / keyint=250 / keyint_min=23 / scenecut=40 / intra_refresh=0 / rc_lookahead=50 / rc=2pass / mbtree=1 / bitrate=1846 / ratetol=1.0 / qcomp=0.60 / qpmin=10 / qpmax=51 / qpstep=4 / cplxblur=20.0 / qblur=0.5 / ip_ratio=1.40 / aq=1:1.00
Default : Да
Forced : Нет
Аудио #1
Идентификатор : 2
Формат : AC-3
Формат/Информация : Audio Coding 3
Расширение режима : CM (complete main)
Параметр Endianness формата : Big
Идентификатор кодека : A_AC3
Продолжительность : 49 м.
Вид битрейта : Постоянный
Битрейт : 192 Кбит/сек
Каналы : 2 канала
Расположение каналов : Front: L R
Частота : 48,0 КГц
Битовая глубина : 16 бит
Метод сжатия : С потерями
Размер потока : 67,3 Мбайт (9%)
Язык : Russian
Default : Да
Forced : Нет
Аудио #2
Идентификатор : 3
Формат : AC-3
Формат/Информация : Audio Coding 3
Расширение режима : CM (complete main)
Параметр Endianness формата : Big
Идентификатор кодека : A_AC3
Продолжительность : 49 м.
Вид битрейта : Постоянный
Битрейт : 192 Кбит/сек
Каналы : 2 канала
Расположение каналов : Front: L R
Частота : 48,0 КГц
Битовая глубина : 16 бит
Метод сжатия : С потерями
Размер потока : 67,3 Мбайт (9%)
Язык : English
Default : Нет
Forced : Нет
Текст
Идентификатор : 4
Формат : UTF-8
Идентификатор кодека : S_TEXT/UTF8
Идентификатор кодека/Информация : UTF-8 Plain Text
Язык : Russian
Default : Да
Forced : Нет






   Похожие торренты   Торрент   Размер 
В этой теме нет новых непрочитанных сообщений. BBC: Европа. История континента / BBC: Wild Europe (2005) DVDRip

6 | 2

2.73 ГБ

В этой теме нет новых непрочитанных сообщений. BBC. Европа. История континента / Wild Europe (2005) DVDRip-AVC

72 | 7

4.98 ГБ

В этой теме нет новых непрочитанных сообщений. BBC: Новая Европа с Майклом Пэйлином / BBC: New Europe With Michael Palin [1-7 из 7] (2007) DVDRip от ExKinoRay

47 | 13

4.79 ГБ

В этой теме нет новых непрочитанных сообщений. Европа и Италия / Europe and Italy (1999) WEBRip

209 | 6

25.54 МБ

В этой теме нет новых непрочитанных сообщений. Восьмибитная Европа / Europe in 8 bits (2013) WEBRip-AVC | Sub

169 | 1

615.44 МБ

В этой теме нет новых непрочитанных сообщений. Мертвая Европа / Dead Europe (2012) WEB-DLRip | A

139 | 17

1.47 ГБ

В этой теме нет новых непрочитанных сообщений. Один день в Европе / One Day in Europe (2005) DVDRip-AVC

3 | 3

1.35 ГБ




Вы не можете начинать темы
Вы не можете отвечать на сообщения
Вы не можете редактировать свои сообщения
Вы не можете удалять свои сообщения
Вы не можете добавлять вложения

Перейти:  
Для Мосгорсуда, Роскомнадзора и рекламодателей: mosgorsud-torrent[собачка]yandex.ru
 Вход
ppkBB3cker v.2 © 2008-2014 @ PPK
[ Time : 0.032s | 15 Queries | GZIP : Off ]

Торрент трекер RUTOR.IN, Не можете зайти на rutor.org? Какой новый адрес рутор? Какое зеркало рутор? Не работает rutor.org и зеркала? Тогда наш торрент специально для вас. Rutor.in неофициальное зеркало rutor. В случае если у Вас заблокирован rutor или вдруг Вы не можете на него зайти, то Вы без труда сможете скачать бесплатно и без рекламы последние новинки кино, игр, сериалов и прочего у нас, на Rutor.in. Не нужно использовать прокси, чтобы зайти на рутор, достаточно воспользоваться нашим ресурсом. Все новые фильмы, игры, сериалы, книги и музыка за 2013 и 2014 годы через торрент бесплатно. Скачивайте фильмы в хорошем качестве, игры для пк, xbox, playstation без регистрации. У нас вы найдете новые Зарубежные сериалы и Русские сериалы 2013, 2014, 2015 годов. Оставайтесь с нами, качайте любимые фильмы, игры, сериалы, книги и музыку.