img image001 image001 image001 image001 image001 image001 image001 image001 image001 image001 image001 image001 image001 image001 image001

Planets Sun Sun Sun
Статистика раздачи
Автор: Nickolas3434 | Размер: 12.49 ГБ | Добавлен: 13 ноя 2014
Раздают: 118    Качают: 17
Скачать торрент
Скачать торрент
Описание торрента

СообщениеДобавлено: 13 ноя 2014 




Царство очарования 3Д
Enchanted Kingdom 3D



#77
Год выпуска: 2013
Страна: Великобритания (Reliance Entertainment, IM Global, BBC Earth Films, Evergreen Studios)
Жанр: Документальный, Видовой
Продолжительность: 1:27:19
Перевод: Субтитры (речи не много)
Режиссеры: Патрик Моррис, Нил Найтингейл / Patrick Morris, Neil Nightingale
Рассказчик: Идрис Эльба
В фильме снимались: Хейли Джоэнн Бэйкон, India Dale-Hill


Описание: Путешествие по чарующим царствам Африки - по дождевому лесу, бушующему вулкану, кислотному озеру, пустыне, коралловому рифу, горам, водопаду, рекам и саваннам.


Премьера (мир): 5 декабря 2013
Бюджет: $25 000 000





Качество: BDRip (by Ash61 с BD 3D Jap)
Контейнер: MKV
Формат 3D: Half OverUnder / Вертикальная анаморфная стереопара
Порядок ракурсов: левый ракурс первый
Видео кодек: x264
Аудио кодек: AC3


Видео: AVC / 23,976 fps / 1920х1080p / 19.6 Mbps
Аудио: Английский / AC3 / 48 KHz / 5.1 ch / 448 Kbps (Original - BD 3D)
Субтитры: (SRT)
Вшитые (softsub):
#1 - Русские Полные (включены по умолчанию) [перевод любительский - Ash61]
#2 - English Full
Внешние (UTF-8):
#1 - Русские Полные (включены по умолчанию) [перевод любительский - Ash61]
General
Unique ID : 230688628893335205852193340263133047123 (0xAD8D0389CECF18279769CC9E3EC36953)
Complete name : E:EnchantedKingdom(2013)3D-halfOU(Ash61)Rus.SubsEnchantedKingdom(2013)3D-halfOU(Ash61)Rus.Subs.mkv
Format : Matroska
Format version : Version 2
File size : 12.5 GiB
Duration : 1h 27mn
Overall bit rate : 20.5 Mbps
Movie name : Царство очарования 3Д / Enchanted Kingdom 3D (2013) 3D
Encoded date : UTC 2014-11-12 15:47:45
Writing application : mkvmerge v5.8.0 ('No Sleep / Pillow') built on Sep 2 2012 15:37:04
Writing library : libebml v1.2.3 + libmatroska v1.3.0
Video
ID : 1
Format : AVC
Format/Info : Advanced Video Codec
Format profile : High@L4.1
Format settings, CABAC : Yes
Format settings, ReFrames : 4 frames
Codec ID : V_MPEG4/ISO/AVC
Duration : 1h 27mn
Bit rate : 19.6 Mbps
Width : 1 920 pixels
Height : 1 080 pixels
Display aspect ratio : 16:9
Frame rate mode : Constant
Frame rate : 23.976 fps
Color space : YUV
Chroma subsampling : 4:2:0
Bit depth : 8 bits
Scan type : Progressive
Bits/(Pixel*Frame) : 0.395
Stream size : 12.0 GiB (96%)
Title : BDRip by Ash61
Writing library : x264 core 138 r2358 9e941d1
Encoding settings : cabac=1 / ref=4 / deblock=1:-3:-3 / analyse=0x3:0x113 / me=umh / subme=10 / psy=1 / psy_rd=1.00:0.15 / mixed_ref=1 / me_range=32 / chroma_me=1 / trellis=2 / 8x8dct=1 / cqm=0 / deadzone=21,11 / fast_pskip=1 / chroma_qp_offset=-3 / threads=12 / lookahead_threads=2 / sliced_threads=0 / nr=0 / decimate=1 / interlaced=0 / bluray_compat=0 / constrained_intra=0 / bframes=9 / b_pyramid=2 / b_adapt=2 / b_bias=0 / direct=3 / weightb=1 / open_gop=0 / weightp=2 / keyint=250 / keyint_min=23 / scenecut=40 / intra_refresh=0 / rc_lookahead=60 / rc=crf / mbtree=1 / crf=18.0 / qcomp=0.70 / qpmin=10 / qpmax=69 / qpstep=4 / vbv_maxrate=40000 / vbv_bufsize=30000 / crf_max=0.0 / nal_hrd=none / frame-packing=4 / ip_ratio=1.40 / aq=1:0.70
Language : English
Default : Yes
Forced : No
Audio
ID : 2
Format : AC-3
Format/Info : Audio Coding 3
Mode extension : CM (complete main)
Format settings, Endianness : Big
Codec ID : A_AC3
Duration : 1h 27mn
Bit rate mode : Constant
Bit rate : 448 Kbps
Channel(s) : 6 channels
Channel positions : Front: L C R, Side: L R, LFE
Sampling rate : 48.0 KHz
Bit depth : 16 bits
Compression mode : Lossy
Stream size : 280 MiB (2%)
Title : Original - BD 3D Jap
Language : English
Default : Yes
Forced : No
Text #1
ID : 3
Format : UTF-8
Codec ID : S_TEXT/UTF8
Codec ID/Info : UTF-8 Plain Text
Title : Полные (перевод любительский - Ash61)
Language : Russian
Default : Yes
Forced : No
Text #2
ID : 4
Format : UTF-8
Codec ID : S_TEXT/UTF8
Codec ID/Info : UTF-8 Plain Text
Title : Full - BD 3D Jap
Language : English
Default : No
Forced : No
Menu
00:00:00.000 : :1
00:00:39.039 : :2
00:03:10.190 : :3
00:07:20.148 : :4
00:11:32.859 : :5
00:14:10.933 : :6
00:20:00.282 : :7
00:20:54.253 : :8
00:23:13.392 : :9
00:25:41.999 : :10
00:28:11.356 : :11
00:30:39.838 : :12
00:32:09.010 : :13
00:36:59.592 : :14
00:39:20.191 : :15
00:43:40.284 : :16
00:46:38.796 : :17
00:48:13.891 : :18
00:52:50.876 : :19
00:56:49.364 : :20
00:57:45.462 : :21
01:01:04.661 : :22
01:05:03.399 : :23
01:10:12.959 : :24
01:13:20.730 : :25
01:16:34.423 : :26
01:21:15.871 : :27
01:24:40.575 : :28
























   Похожие торренты   Торрент   Размер 
В этой теме нет новых непрочитанных сообщений. Амазония / Amazonia (2013) BDRip 1080p от Ash61 | 3D-Video | halfOU | Субтитры

346 | 149

13.83 ГБ

В этой теме нет новых непрочитанных сообщений. Галапагосы 3D / Galapagos: The Enchanted Voyage (1999) BDRip 1080p от Ash61 | 3D-Video | halfOU | L1

129 | 6

4.07 ГБ

В этой теме нет новых непрочитанных сообщений. На глубине / Into the Deep [IMAX] (1994) BDRip 1080p от Ash61 | 3D-Video | halfOU | Рус.Субтитры

94 | 7

3.99 ГБ

В этой теме нет новых непрочитанных сообщений. На глубине / Into the Deep [IMAX] (1994) BDRip 1080p от Ash61 | 3D-Video | halfOU | Рус.Субтитры

90 | 6

4.15 ГБ

В этой теме нет новых непрочитанных сообщений. Тор 2: Царство тьмы / Thor: The Dark World (2013) BDRip 1080p от Ash61 | 3D-Video | halfOU | Лицензия

400 | 107

5.7 ГБ

В этой теме нет новых непрочитанных сообщений. Тор 2: Царство тьмы / Thor: The Dark World (2013) BDRip 1080p от Ash61 | 3D-Video | halfOU | Чистый звук

140 | 20

5.5 ГБ

В этой теме нет новых непрочитанных сообщений. Остров лемуров: Мадагаскар / Island of Lemurs: Madagascar (2014) BDRip 1080p от Ash61 | 3D-Video | halfOU | Рус.субтитры

84 | 19

6.04 ГБ




Вы не можете начинать темы
Вы не можете отвечать на сообщения
Вы не можете редактировать свои сообщения
Вы не можете удалять свои сообщения
Вы не можете добавлять вложения

Перейти:  
Для Мосгорсуда, Роскомнадзора и рекламодателей: mosgorsud-torrent[собачка]yandex.ru
 Вход
ppkBB3cker v.2 © 2008-2014 @ PPK
[ Time : 0.022s | 15 Queries | GZIP : Off ]

Торрент трекер RUTOR.IN, Не можете зайти на rutor.org? Какой новый адрес рутор? Какое зеркало рутор? Не работает rutor.org и зеркала? Тогда наш торрент специально для вас. Rutor.in неофициальное зеркало rutor. В случае если у Вас заблокирован rutor или вдруг Вы не можете на него зайти, то Вы без труда сможете скачать бесплатно и без рекламы последние новинки кино, игр, сериалов и прочего у нас, на Rutor.in. Не нужно использовать прокси, чтобы зайти на рутор, достаточно воспользоваться нашим ресурсом. Все новые фильмы, игры, сериалы, книги и музыка за 2013 и 2014 годы через торрент бесплатно. Скачивайте фильмы в хорошем качестве, игры для пк, xbox, playstation без регистрации. У нас вы найдете новые Зарубежные сериалы и Русские сериалы 2013, 2014, 2015 годов. Оставайтесь с нами, качайте любимые фильмы, игры, сериалы, книги и музыку.