img image001 image001 image001 image001 image001 image001 image001 image001 image001 image001 image001 image001 image001 image001 image001

Planets Sun Sun Sun
Статистика раздачи
Автор: Nickolas3434 | Размер: 1.3 ГБ | Добавлен: 16 ноя 2014
Раздают: 192    Качают: 58
Скачать торрент
Скачать торрент
Описание торрента

СообщениеДобавлено: 16 ноя 2014 

Воры в законе: Жизнь удалась / Thieves by Law / Ganavim Ba Hok (2010)

Информация о фильме
Русское название: Воры в законе: Жизнь удалась
Оригинальное название: Thieves by Law / Ganavim Ba Hok
Год выхода: 2010
Жанр: Документальный, криминал, биография
Режиссер: Александр Гентелев / Alexander Gentelev
В ролях:
Леонид Билунов (Лёня Макинтош)
Алимжан Тактахунов (Тайваньчик)
Виталий Дёмочка (Бондарь)
Описание: Фильм о жизни трех русскоязычных авторитетов на фоне исторических процессов новейшей истории России, которые рассказывают про дела минувших дней и философствуют для вечности как умеют.

Производство: Германия, Израиль, Испания, Норвегия, Швеция, Швейцария, Польша, Финляндия
Продолжительность: 01:30:49
Перевод: Оригинал (русский)
Субтитры: Английские (полные, вшитые)
Навигация по главам: Есть
Файл
Качество: DVDRip-AVC
Формат: MKV
Видео: MPEG-4 AVC/H.264, 720x576@1024x576 анаморф (16:9), 25 fps, ~1814 kbps, 0.175 bit/pixel, crf
Аудио: AC3 Dolby Digital, 2 ch, 48 KHz, 192 kbps
Семпл
Общее
Уникальный идентификатор : 243876737175410457121883300924638643584 (0xB778F37A689DC218A647FEA80EC04580)
Полное имя : Vory.v.zakone.Zhizn.udalas.2010.DVDRip-AVC.mkv
Формат : Matroska
Версия формата : Version 4 / Version 2
Размер файла : 1,30 Гбайт
Продолжительность : 1 ч. 30 м.
Общий поток : 2044 Кбит/сек
Название фильма : Thieves by Law / Ganavim Ba Hok (2010) DVDRip-AVC
Дата кодирования : UTC 2014-11-14 11:32:37
Программа кодирования : mkvmerge v7.3.0 ('Nouages') 64bit built on Oct 22 2014 18:53:34
Библиотека кодирования : libebml v1.3.0 + libmatroska v1.4.1
Видео
Идентификатор : 1
Формат : AVC
Формат/Информация : Advanced Video Codec
Профиль формата : High@L4.1
Параметр CABAC формата : Да
Параметр ReFrames формата : 9 кадров
Идентификатор кодека : V_MPEG4/ISO/AVC
Продолжительность : 1 ч. 30 м.
Битрейт : 1811 Кбит/сек
Ширина : 720 пикселей
Высота : 576 пикселей
Соотношение сторон : 16:9
Режим частоты кадров : Постоянный
Частота кадров : 25,000 кадров/сек
Стандарт вещания : PAL
Цветовое пространство : YUV
Субдискретизация насыщенности : 4:2:0
Битовая глубина : 8 бит
Тип развёртки : Прогрессивная
Бит/(Пиксели*Кадры) : 0.175
Размер потока : 1,15 Гбайт (89%)
Заголовок : H.264, 720x576@1024x576 (16:9), 25 fps, ~1814 kbps, 0.175 Bits/(Pixel*Frame), crf
Библиотека кодирования : x264 core 142 r2479 dd79a61
Настройки программы : cabac=1 / ref=9 / deblock=1:-1:-1 / analyse=0x3:0x133 / me=umh / subme=11 / psy=1 / psy_rd=1.00:0.15 / mixed_ref=1 / me_range=32 / chroma_me=1 / trellis=2 / 8x8dct=1 / cqm=0 / deadzone=21,11 / fast_pskip=1 / chroma_qp_offset=-3 / threads=12 / lookahead_threads=3 / sliced_threads=0 / nr=0 / decimate=1 / interlaced=0 / bluray_compat=0 / constrained_intra=0 / bframes=12 / b_pyramid=2 / b_adapt=2 / b_bias=0 / direct=3 / weightb=1 / open_gop=0 / weightp=2 / keyint=250 / keyint_min=25 / scenecut=40 / intra_refresh=0 / rc_lookahead=60 / rc=crf / mbtree=1 / crf=19.0 / qcomp=0.60 / qpmin=0 / qpmax=69 / qpstep=4 / vbv_maxrate=62500 / vbv_bufsize=78125 / crf_max=0.0 / nal_hrd=none / filler=0 / ip_ratio=1.40 / aq=1:1.00 / zones=133810,136240,q=38
Default : Да
Forced : Нет
Основные цвета : BT.709
Характеристики трансфера : BT.709
Коэффициенты матрицы : BT.709
colour_range : Limited
Аудио
Идентификатор : 2
Формат : AC-3
Формат/Информация : Audio Coding 3
Расширение режима : CM (complete main)
Параметр Endianness формата : Big
Идентификатор кодека : A_AC3
Продолжительность : 1 ч. 30 м.
Вид битрейта : Постоянный
Битрейт : 192 Кбит/сек
Каналы : 2 канала
Расположение каналов : Front: L R
Частота : 48,0 КГц
Битовая глубина : 16 бит
Метод сжатия : С потерями
Размер потока : 125 Мбайт (9%)
Заголовок : AC3 Dolby Digital, 2 ch, 48 KHz, 192 kbps
Язык : Russian
Default : Да
Forced : Нет
Меню
00:00:00.000 : en:Chapter 1
00:10:00.101 : en:Chapter 2
00:20:00.084 : en:Chapter 3
00:30:00.048 : en:Chapter 4
00:40:00.108 : en:Chapter 5
00:50:00.088 : en:Chapter 6
01:00:00.165 : en:Chapter 7
01:10:00.178 : en:Chapter 8
01:20:00.156 : en:Chapter 9
01:30:00.169 : en:Chapter 10



   Похожие торренты   Торрент   Размер 
В этой теме нет новых непрочитанных сообщений. Воры в законе: Жизнь удалась / Thieves by Law / Ganavim Ba Hok (2010) DVDRip

59 | 11

1.38 ГБ

В этой теме нет новых непрочитанных сообщений. Rotoff - Жизнь удалась! (2010) MP3

0 | 2

110.59 МБ

В этой теме нет новых непрочитанных сообщений. Воры в законе (2007) DVDRip

248 | 22

804.67 МБ

В этой теме нет новых непрочитанных сообщений. Воры в законе (1988) DVDRip от ExKinoRay

240 | 33

1.37 ГБ

В этой теме нет новых непрочитанных сообщений. Воры в законе. XX-XXI век (2006-2007) DVDRip от Киномагия

66 | 9

2 ГБ

В этой теме нет новых непрочитанных сообщений. Воры как мы / Thieves Like Us (1974) HDRip | P

14 | 0

2.18 ГБ

В этой теме нет новых непрочитанных сообщений. Воры / The Thieves (2012) HDRip

94 | 12

1.49 ГБ




Вы не можете начинать темы
Вы не можете отвечать на сообщения
Вы не можете редактировать свои сообщения
Вы не можете удалять свои сообщения
Вы не можете добавлять вложения

Перейти:  
Для Мосгорсуда, Роскомнадзора и рекламодателей: mosgorsud-torrent[собачка]yandex.ru
 Вход
ppkBB3cker v.2 © 2008-2014 @ PPK
[ Time : 0.294s | 15 Queries | GZIP : Off ]

Торрент трекер RUTOR.IN, Не можете зайти на rutor.org? Какой новый адрес рутор? Какое зеркало рутор? Не работает rutor.org и зеркала? Тогда наш торрент специально для вас. Rutor.in неофициальное зеркало rutor. В случае если у Вас заблокирован rutor или вдруг Вы не можете на него зайти, то Вы без труда сможете скачать бесплатно и без рекламы последние новинки кино, игр, сериалов и прочего у нас, на Rutor.in. Не нужно использовать прокси, чтобы зайти на рутор, достаточно воспользоваться нашим ресурсом. Все новые фильмы, игры, сериалы, книги и музыка за 2013 и 2014 годы через торрент бесплатно. Скачивайте фильмы в хорошем качестве, игры для пк, xbox, playstation без регистрации. У нас вы найдете новые Зарубежные сериалы и Русские сериалы 2013, 2014, 2015 годов. Оставайтесь с нами, качайте любимые фильмы, игры, сериалы, книги и музыку.