img image001 image001 image001 image001 image001 image001 image001 image001 image001 image001 image001 image001 image001 image001 image001

Planets Sun Sun Sun
Статистика раздачи
Автор: Nickolas3434 | Размер: 3.05 ГБ | Добавлен: 19 ноя 2014
Раздают: 56    Качают: 35
Скачать торрент
Скачать торрент
Описание торрента

СообщениеДобавлено: 19 ноя 2014 

Информация о фильме
Название: Discovery. Как устроена Вселенная
Оригинальное название: How the Universe Works
Год выхода: 2014
Жанр: Документальный, научно-познавательный, астрономия, космос
Режиссер: Mark Bridge
В ролях: Adam Warner, Peter Chinn, Louise Say, Lorne Townend, Shaun Trevisick, Kate Dart, Alex Hearle
О фильме:
01. Путешествие из центра Солнца / Jorney from the cente of the Sun
Само наше существование является результатом термоядерных реакций, происходящих внутри солнца. Нырните в облако раскаленных газов и узнайте, как оно устроено.
02. Гибель вселенной / End of the Universe
Как и когда погибнет вселенная? Гравитация и темная материя готовы уничтожить наш мир. Когда же расширение и темная энергия достигнут критической точки?
03. Юпитер: Разрушитель или Спаситель? / Jupiter: Destroyer or Savior?
Как сформировался газовый гигант Юпитер? Мы познакомимся с устройством космоса, проясняя необычные явления с помощью современной астрономии.
04. Первая секунда после большого взрыва / First Second of the Big Bang
Эта программа расскажет обо всем, что нужно знать о космосе: от Большого взрыва до галактик, звезд и планет. Что происходило в первые мгновения после Большого взрыва?
05. Есть ли жизнь на Сатурне? / Is Saturn Alive?
Сатурн с его суровой погодой, развивающейся системой колец и геологической активностью на одной из лун переписал учебники астрономии. Вас ждет рассказ о самых последних открытиях.
_
06. Weapons of Mass Extinction
07. Did a Black Hole Build the Milky Way?
08. Our Voyage to the Stars
09. The Search for a Second Earth
Добавлена 5 серия. Приятного просмотра!

Когда раздача ведётся путём добавления новых серий, при каждом добавлении создётся новый торрент. Чтобы начать докачку новой серии, пользователям необходимо сделать следующее:
(1) остановить скачивание,
(2) удалить старый торрент у себя из клиента (старые серии удалять не надо),
(3) скачать новый торрент и запустить его у себя в клиенте вместо старого, при этом указать клиенту путь в старую папку, куда и должно происходить скачивание новых серий.
Ваш клиент при этом должен произвести хеширование (проверку) старой папки (если не производит сам - помогите ему сделать это), и будет докачивать только те серии, которых у вас ещё нет. Старые серии при этом не удаляются, а продолжают раздаваться!
Eсли вы уже удалили старые серии, то предотвратить повторную закачку старых серий можно, отжав галочку в соответсвующих местах при запуске нового торрента. По возможности, желательно не удалять старые серии как можно дольше, чтобы релизёр не столько продолжал раздавать старые серии, а смог сконцентрироваться на новых.


Официальный сайт
Страна: США
Студия: Pioneer Productions, Discovery Channel
Продолжительность: ~00:44:05
Перевод: Профессиональный (одноголосый закадровый) - студия Кирилица
Файл
Кодек: XviD
Качество: HDTVRip
Видео: AVI, 720 x 400, 25.00 fps, ~1800 kb/s
Звук: AC3 2ch, 48kHz, 192 kbps

Формат : AVI
Формат/Информация : Audio Video Interleave
Размер файла : 630 Мбайт
Продолжительность : 44 м.
Общий поток : 1999 Кбит/сек
Программа кодирования : TMPGEnc Video Mastering Works 5 Version. 5.0.6.38
Библиотека кодирования : TMPGEnc Video Mastering Works 5 Version. 5.0.6.38
Видео
Идентификатор : 0
Формат : MPEG-4 Visual
Профиль формата : Advanced Simple@L5
Параметр BVOP формата : 2
Параметр QPel формата : Нет
Параметр GMC формата : Без точки перехода
Параметр матрицы формата : Default (H.263)
Режим смешивания : Сжатый битовый поток
Идентификатор кодека : XVID
Идентификатор кодека/Подсказка : XviD
Продолжительность : 44 м.
Битрейт : 1799 Кбит/сек
Ширина : 720 пикселей
Высота : 400 пикселей
Соотношение сторон : 16:9
Частота кадров : 25,000 кадров/сек
Цветовое пространство : YUV
Субдискретизация насыщенности : 4:2:0
Битовая глубина : 8 бит
Тип развёртки : Прогрессивная
Метод сжатия : С потерями
Бит/(Пиксели*Кадры) : 0.250
Размер потока : 567 Мбайт (90%)
Библиотека кодирования : XviD 64
Аудио
Идентификатор : 1
Формат : AC-3
Формат/Информация : Audio Coding 3
Расширение режима : CM (complete main)
Идентификатор кодека : 2000
Продолжительность : 44 м.
Вид битрейта : Постоянный
Битрейт : 192 Кбит/сек
Каналы : 2 канала
Расположение каналов : Front: L R
Частота : 48,0 КГц
Битовая глубина : 16 бит
Метод сжатия : С потерями
Размер потока : 60,5 Мбайт (10%)
Выравнивание : Соединение по промежуткам
Продолжительность промежутка : 240 мс. (6,00 видеокадров)
Время предзагрузки промежутка : 224 мс.

Релиз от:



   Похожие торренты   Торрент   Размер 
В этой теме нет новых непрочитанных сообщений. Discovery: Как устроена Вселенная / How the Universe Works [03x01-06] (2014) HDTVRip | P1

34 | 8

3.67 ГБ

В этой теме нет новых непрочитанных сообщений. Discovery: Как устроена Вселенная / How the Universe Works [03x01-04] (2014) HDTVRip

28 | 14

2.44 ГБ

В этой теме нет новых непрочитанных сообщений. Discovery: Как устроена Вселенная / How the Universe Works [03x01-07] (2014) HDTVRip | P1

61 | 13

4.28 ГБ

В этой теме нет новых непрочитанных сообщений. Discovery: Как устроена Вселенная / How the Universe Works [03x01-08] (2014) HDTVRip | P1

101 | 63

4.89 ГБ

В этой теме нет новых непрочитанных сообщений. Discovery. Как устроена Вселенная / How the Universe Works [03x01] (2014) HDTVRip 720p

81 | 5

1.38 ГБ

В этой теме нет новых непрочитанных сообщений. Discovery: Как устроена Вселенная / How the Universe Works [03x01-06] (2014) HDTVRip 720p | P1

44 | 85

8.19 ГБ

В этой теме нет новых непрочитанных сообщений. Discovery: Как устроена Вселенная / How the Universe Works [03x01-07] (2014) HDTVRip 720p | P1

130 | 52

9.55 ГБ




Вы не можете начинать темы
Вы не можете отвечать на сообщения
Вы не можете редактировать свои сообщения
Вы не можете удалять свои сообщения
Вы не можете добавлять вложения

Перейти:  
Для Мосгорсуда, Роскомнадзора и рекламодателей: mosgorsud-torrent[собачка]yandex.ru
 Вход
ppkBB3cker v.2 © 2008-2014 @ PPK
[ Time : 0.677s | 16 Queries | GZIP : Off ]

Торрент трекер RUTOR.IN, Не можете зайти на rutor.org? Какой новый адрес рутор? Какое зеркало рутор? Не работает rutor.org и зеркала? Тогда наш торрент специально для вас. Rutor.in неофициальное зеркало rutor. В случае если у Вас заблокирован rutor или вдруг Вы не можете на него зайти, то Вы без труда сможете скачать бесплатно и без рекламы последние новинки кино, игр, сериалов и прочего у нас, на Rutor.in. Не нужно использовать прокси, чтобы зайти на рутор, достаточно воспользоваться нашим ресурсом. Все новые фильмы, игры, сериалы, книги и музыка за 2013 и 2014 годы через торрент бесплатно. Скачивайте фильмы в хорошем качестве, игры для пк, xbox, playstation без регистрации. У нас вы найдете новые Зарубежные сериалы и Русские сериалы 2013, 2014, 2015 годов. Оставайтесь с нами, качайте любимые фильмы, игры, сериалы, книги и музыку.
cron