img image001 image001 image001 image001 image001 image001 image001 image001 image001 image001 image001 image001 image001 image001 image001

Planets Sun Sun Sun
Статистика раздачи
Автор: Nickolas3434 | Размер: 7.33 ГБ | Добавлен: 01 дек 2014
Раздают: 98    Качают: 66
Скачать торрент
Скачать торрент
Описание торрента

СообщениеДобавлено: 01 дек 2014 

Оригинальное название: Война и мифы
Год выхода: 2014
Жанр: Документальный сериал, военный, история, ВОВ, экранизация
Режиссер: Элла Тухарели
О фильме: "Война и мифы" - многосерийный документальный телевизионный фильм, разоблачающий современные мифы о Великой Отечественной войне. Снято по книге В.Р. Мединского "Война. Мифы СССР 1939-1945". В этом многосерийном документальном фильме говорится о том, насколько превратно истолкована местами история, точнее та ее часть, которая касается Великой Отечественной войны.
Страна: Россия
Студия: Красный квадрат, ВВП Альянс
Продолжительность: 6 х ~ 00:47:30
Язык: Русский
Кодек: MPEG-4 AVC
Качество: HDTVRip (720p)
Видео: 1280x720, ~ 3300 Кбит/с, 25,000 fps
Звук: АС3, 6 ch, 384 Кбит/с
Семпл
01. План Ост
02. Первые дни войны
03. Ополченцы и коллаборационисты
04. Штрафбат
05. Ленд-Лиз. Вклад союзников
06. Военнопленные
General
Unique ID : 249365402093898577126467574356204019407 (0xBB9A078D39BB1333A4AB4D2703775ECF)
Complete name : G:Война и мифы.2014.x264.HDTVRip.(720p)6.Военнопленные.mkv
Format : Matroska
Format version : Version 4 / Version 2
File size : 1.25 GiB
Duration : 48mn 19s
Overall bit rate : 3 697 Kbps
Movie name : Война. Мифы СССР. 1939-1945 / 6 серия-Военнопленные / Rip by PowerRock
Encoded date : UTC 2014-11-27 11:10:02
Writing application : mkvmerge v6.7.0 ('Back to the Ground') 32bit built on Jan 8 2014 15:03:17
Writing library : libebml v1.3.0 + libmatroska v1.4.1
Video
ID : 1
Format : AVC
Format/Info : Advanced Video Codec
Format profile : High@L4.1
Format settings, CABAC : Yes
Format settings, ReFrames : 7 frames
Codec ID : V_MPEG4/ISO/AVC
Duration : 48mn 19s
Bit rate : 3 312 Kbps
Width : 1 280 pixels
Height : 720 pixels
Display aspect ratio : 16:9
Frame rate mode : Constant
Frame rate : 25.000 fps
Color space : YUV
Chroma subsampling : 4:2:0
Bit depth : 8 bits
Scan type : Progressive
Bits/(Pixel*Frame) : 0.144
Stream size : 1.09 GiB (88%)
Title : Война. Мифы СССР. 1939-1945
Writing library : x264 core 130 r2273 b3065e6
Encoding settings : cabac=1 / ref=7 / deblock=1:-2:-1 / analyse=0x3:0x133 / me=umh / subme=10 / psy=1 / psy_rd=1.00:0.10 / mixed_ref=1 / me_range=24 / chroma_me=1 / trellis=2 / 8x8dct=1 / cqm=0 / deadzone=21,11 / fast_pskip=0 / chroma_qp_offset=-3 / threads=6 / lookahead_threads=1 / sliced_threads=0 / nr=0 / decimate=1 / interlaced=0 / bluray_compat=0 / constrained_intra=0 / bframes=5 / b_pyramid=2 / b_adapt=2 / b_bias=0 / direct=3 / weightb=1 / open_gop=0 / weightp=2 / keyint=250 / keyint_min=23 / scenecut=40 / intra_refresh=0 / rc_lookahead=50 / rc=2pass / mbtree=1 / bitrate=3312 / ratetol=1.0 / qcomp=0.60 / qpmin=10 / qpmax=51 / qpstep=4 / cplxblur=20.0 / qblur=0.5 / ip_ratio=1.40 / aq=1:1.00
Default : Yes
Forced : No
Audio
ID : 2
Format : AC-3
Format/Info : Audio Coding 3
Mode extension : CM (complete main)
Format settings, Endianness : Big
Codec ID : A_AC3
Duration : 48mn 19s
Bit rate mode : Constant
Bit rate : 384 Kbps
Channel(s) : 6 channels
Channel positions : Front: L C R, Side: L R, LFE
Sampling rate : 48.0 KHz
Bit depth : 16 bits
Compression mode : Lossy
Stream size : 133 MiB (10%)
Language : Russian
Default : Yes
Forced : No






   Похожие торренты   Торрент   Размер 
В этой теме нет новых непрочитанных сообщений. Война и мифы [01-05 из 05] (2014) HDTVRip от GeneralFilm

377 | 45

2.75 ГБ

В этой теме нет новых непрочитанных сообщений. Война и мифы [01-06 из 06] (2014) HDTVRip от GeneralFilm

1514 | 723

3.3 ГБ

В этой теме нет новых непрочитанных сообщений. Вторая мировая война: Мифы о войне (2014) WEB-DL 720p | P2

274 | 8

410.5 МБ

В этой теме нет новых непрочитанных сообщений. Война и мифы [01 из 04] (2014) SATRip

121 | 2

618.29 МБ

В этой теме нет новых непрочитанных сообщений. Война и мифы [01-05 из 05] (2014) SATRip

321 | 20

3.09 ГБ

В этой теме нет новых непрочитанных сообщений. Вторая мировая война: Мифы о войне (2014) WEB-DLRip | P2

66 | 10

160.3 МБ

В этой теме нет новых непрочитанных сообщений. Зимняя война (1-8 серии из 8) (Виктор Правдюк) [2014, документальный, история, война, DVDRip]

17 | 0

3.67 ГБ




Вы не можете начинать темы
Вы не можете отвечать на сообщения
Вы не можете редактировать свои сообщения
Вы не можете удалять свои сообщения
Вы не можете добавлять вложения

Перейти:  
Для Мосгорсуда, Роскомнадзора и рекламодателей: mosgorsud-torrent[собачка]yandex.ru
 Вход
ppkBB3cker v.2 © 2008-2014 @ PPK
[ Time : 0.041s | 16 Queries | GZIP : Off ]

Торрент трекер RUTOR.IN, Не можете зайти на rutor.org? Какой новый адрес рутор? Какое зеркало рутор? Не работает rutor.org и зеркала? Тогда наш торрент специально для вас. Rutor.in неофициальное зеркало rutor. В случае если у Вас заблокирован rutor или вдруг Вы не можете на него зайти, то Вы без труда сможете скачать бесплатно и без рекламы последние новинки кино, игр, сериалов и прочего у нас, на Rutor.in. Не нужно использовать прокси, чтобы зайти на рутор, достаточно воспользоваться нашим ресурсом. Все новые фильмы, игры, сериалы, книги и музыка за 2013 и 2014 годы через торрент бесплатно. Скачивайте фильмы в хорошем качестве, игры для пк, xbox, playstation без регистрации. У нас вы найдете новые Зарубежные сериалы и Русские сериалы 2013, 2014, 2015 годов. Оставайтесь с нами, качайте любимые фильмы, игры, сериалы, книги и музыку.
cron