img image001 image001 image001 image001 image001 image001 image001 image001 image001 image001 image001 image001 image001 image001 image001

Planets Sun Sun Sun
Статистика раздачи
Автор: Nickolas3434 | Размер: 4.28 ГБ | Добавлен: 09 дек 2014
Раздают: 164    Качают: 49
Скачать торрент
Скачать торрент
Описание торрента

СообщениеДобавлено: 09 дек 2014 

Информация о фильме
Название: NG: Вторжение на Землю
Оригинальное название: Invasion Earth
Год выхода: 2014
Жанр: Документальный
Режиссер: Кирсти Маклур, Роберт Стрендж
О фильме:
Необъяснимые огни в небе, возможно, связаны с одной страшной смертью, и пилот пропадает после сообщения о странном объекте рядом с его самолетом.
Когда раздача ведётся путём добавления новых серий, при каждом добавлении создётся новый торрент. Чтобы начать докачку новой серии, пользователям необходимо сделать следующее:
(1) остановить скачивание,
(2) удалить старый торрент у себя из клиента (старые серии удалять не надо),
(3) скачать новый торрент и запустить его у себя в клиенте вместо старого, при этом указать клиенту путь в старую папку, куда и должно происходить скачивание новых серий.
Ваш клиент при этом должен произвести хеширование (проверку) старой папки (если не производит сам - помогите ему сделать это), и будет докачивать только те серии, которых у вас ещё нет. Старые серии при этом не удаляются, а продолжают раздаваться!
Eсли вы уже удалили старые серии, то предотвратить повторную закачку старых серий можно, отжав галочку в соответсвующих местах при запуске нового торрента. По возможности, желательно не удалять старые серии как можно дольше, чтобы релизёр не столько продолжал раздавать старые серии, а смог сконцентрироваться на новых.


Добавлена 8 серия.Приятного просмотра!
Официальный сайт
Страна: США
Студия: NGC Network International, LLC.
Продолжительность: 00:43:42
Перевод: Профессиональный (одноголосый закадровый)
Файл
Кодек: XviD
Качество: IPTVRip
Видео: 704 x 400, 25 fps, ~1606 Кбит/сек
Звук: MP3, 2ch, 128 Кбит/сек
Скриншоты

Формат : AVI
Формат/Информация : Audio Video Interleave
Размер файла : 546 Мбайт
Продолжительность : 43 м.
Общий поток : 1748 Кбит/сек
Программа кодирования : VirtualDubMod 1.5.10.3 | www.virtualdub-fr.org || (build 2550/release)
Библиотека кодирования : VirtualDub build 35576/release
Видео
Идентификатор : 0
Формат : MPEG-4 Visual
Профиль формата : Advanced Simple@L5
Параметр BVOP формата : 1
Параметр QPel формата : Нет
Параметр GMC формата : Без точки перехода
Параметр матрицы формата : Выборочная
Идентификатор кодека : XVID
Идентификатор кодека/Подсказка : XviD
Продолжительность : 43 м.
Битрейт : 1610 Кбит/сек
Ширина : 704 пикселя
Высота : 400 пикселей
Соотношение сторон : 16:9
Частота кадров : 25,000 кадров/сек
Цветовое пространство : YUV
Субдискретизация насыщенности : 4:2:0
Битовая глубина : 8 бит
Тип развёртки : Прогрессивная
Метод сжатия : С потерями
Бит/(Пиксели*Кадры) : 0.229
Размер потока : 503 Мбайт (92%)
Библиотека кодирования : XviD 1.2.1 (UTC 2008-12-04)
Аудио
Идентификатор : 1
Формат : MPEG Audio
Версия формата : Version 1
Профиль формата : Layer 3
Идентификатор кодека : 55
Идентификатор кодека/Подсказка : MP3
Продолжительность : 43 м.
Вид битрейта : Постоянный
Битрейт : 128 Кбит/сек
Каналы : 2 канала
Частота : 48,0 КГц
Метод сжатия : С потерями
Размер потока : 40,0 Мбайт (7%)
Выравнивание : Соединение по промежуткам
Продолжительность промежутка : 40 мс. (1,00 видеокадр)
Время предзагрузки промежутка : 504 мс.



   Похожие торренты   Торрент   Размер 
В этой теме нет новых непрочитанных сообщений. NG: Вторжение на Землю / Invasion Earth [01-06 из 8] (2014) IPTVRip

71 | 6

3.21 ГБ

В этой теме нет новых непрочитанных сообщений. NG: Вторжение на Землю / Invasion Earth [01-07 из 8] (2014) IPTVRip

50 | 23

3.74 ГБ

В этой теме нет новых непрочитанных сообщений. NG: Вторжение на Землю / Invasion Earth [01-08 из 08] (2014) HDTVRip 720p

0 | 7

10.65 ГБ

В этой теме нет новых непрочитанных сообщений. Вторжение на Землю / Invasion Earth: The Aliens Are Here (1988) DVDRip | Sub

0 | 2

757.2 МБ

В этой теме нет новых непрочитанных сообщений. Вторжение на Землю / Terminal Invasion (2002) DVDRip

3 | 4

1.46 ГБ

В этой теме нет новых непрочитанных сообщений. Вторжение в Розуэлл / Сдохни! / Invasion Roswell / Exterminators / Battle: Earth (2013) BDRip 1080p | P2

345 | 57

7.04 ГБ

В этой теме нет новых непрочитанных сообщений. Вторжение / Invasion (2009) PC

4 | 3

41.4 МБ




Вы не можете начинать темы
Вы не можете отвечать на сообщения
Вы не можете редактировать свои сообщения
Вы не можете удалять свои сообщения
Вы не можете добавлять вложения

Перейти:  
Для Мосгорсуда, Роскомнадзора и рекламодателей: mosgorsud-torrent[собачка]yandex.ru
 Вход
ppkBB3cker v.2 © 2008-2014 @ PPK
[ Time : 0.693s | 16 Queries | GZIP : On ]

Торрент трекер RUTOR.IN, Не можете зайти на rutor.org? Какой новый адрес рутор? Какое зеркало рутор? Не работает rutor.org и зеркала? Тогда наш торрент специально для вас. Rutor.in неофициальное зеркало rutor. В случае если у Вас заблокирован rutor или вдруг Вы не можете на него зайти, то Вы без труда сможете скачать бесплатно и без рекламы последние новинки кино, игр, сериалов и прочего у нас, на Rutor.in. Не нужно использовать прокси, чтобы зайти на рутор, достаточно воспользоваться нашим ресурсом. Все новые фильмы, игры, сериалы, книги и музыка за 2013 и 2014 годы через торрент бесплатно. Скачивайте фильмы в хорошем качестве, игры для пк, xbox, playstation без регистрации. У нас вы найдете новые Зарубежные сериалы и Русские сериалы 2013, 2014, 2015 годов. Оставайтесь с нами, качайте любимые фильмы, игры, сериалы, книги и музыку.
cron