img image001 image001 image001 image001 image001 image001 image001 image001 image001 image001 image001 image001 image001 image001 image001

Planets Sun Sun Sun
Статистика раздачи
Автор: Nickolas3434 | Размер: 844.23 МБ | Добавлен: 14 дек 2014
Раздают: 301    Качают: 32
Скачать торрент
Скачать торрент
Описание торрента

СообщениеДобавлено: 14 дек 2014 

Информация о фильме
Название: Ген пьянства
Оригинальное название: Научное расследование Сергея Малозёмова:Ген пьянства
Год выхода: 2014
Жанр: Документальный
Режиссер: Аслан Камбиев
В ролях: Ведущий: Сергей Малоземов

О фильме:
Есть ли у русских ген, который заставляет нас пить? В массовом сознании немало мифов на этот счет. Один из них — миф о «гене Чингисхана», который занесли на Русь татаро-монголы. Почему же так легко спиваются северные народы, а в Средиземноморье, наоборот, хоть и пьют немало, алкоголиков не видно?
Очередное научное расследование Сергея Малозёмова будет посвящено научным открытиям последнего времени, связанным с алкоголем. И главные из них касаются не алкоголиков, а всех нас – тех, кто выпивает время от времени.
Что происходит в организме, когда мы достигаем определенного градуса? Уникальные пугающие кадры из кардиоцентра имени Бакулева, где хранят сердца, остановившиеся от алкоголя! Какова безопасная доза алкоголя и чем аргументирует свою позицию финский ученый, заявивший, что бутылка вина в день – это нормально? Что за водочное родство душ у нас со скандинавами и почему в Швеции, например, по воскресеньям алкоголь вообще не продают?
Заложено ли пьянство в генах? В поисках ответа на этот вопрос авторы фильма вместе с генетиком Светланой Боринской совершат две экспедиции за образцами ДНК – в Якутию, один из регионов России с потреблением алкоголя выше среднего, и в Грузию — страну, где пьют много, но не спиваются. А также возьмут для исследований «русскую ДНК» у отечественных звезд, в том числе тех, кто имел проблемы с алкоголем…
Страна: Россия
Студия: НТВ
Продолжительность: 01:00:55
Перевод: Не требуется

Файл
Кодек: Xvid
Качество: SATRip
Видео: 720 x 448
Частота: 25,000 кадров/сек
Битрейт: 1800 Кбит/сек
Звук: MP3, 2ch. 128 Кбит/сек

Формат : AVI
Формат/Информация : Audio Video Interleave
Размер файла : 844 Мбайт
Продолжительность : 1 ч. 0 м.
Общий поток : 1938 Кбит/сек
Программа кодирования : VirtualDubModRus 1.5.10.2 (build 2542/release)
Библиотека кодирования : VirtualDubMod build 2542/release

Видео
Идентификатор : 0
Формат : MPEG-4 Visual
Профиль формата : Advanced Simple@L5
Параметр BVOP формата : 2
Параметр QPel формата : Нет
Параметр GMC формата : Без точки перехода
Параметр матрицы формата : Default (H.263)
Идентификатор кодека : XVID
Идентификатор кодека/Подсказка : XviD
Продолжительность : 1 ч. 0 м.
Битрейт : 1800 Кбит/сек
Ширина : 720 пикселей
Высота : 448 пикселей
Соотношение сторон : 16:10
Частота кадров : 25,000 кадров/сек
Цветовое пространство : YUV
Субдискретизация насыщенности : 4:2:0
Битовая глубина : 8 бит
Тип развёртки : Прогрессивная
Метод сжатия : С потерями
Бит/(Пиксели*Кадры) : 0.223
Размер потока : 784 Мбайт (93%)
Библиотека кодирования : XviD 1.2.1 (UTC 2008-12-04)

Аудио
Идентификатор : 1
Формат : MPEG Audio
Версия формата : Version 1
Профиль формата : Layer 3
Идентификатор кодека : 55
Идентификатор кодека/Подсказка : MP3
Продолжительность : 1 ч. 0 м.
Вид битрейта : Постоянный
Битрейт : 128 Кбит/сек
Каналы : 2 канала
Частота : 48,0 КГц
Метод сжатия : С потерями
Размер потока : 55,8 Мбайт (7%)
Выравнивание : Соединение по промежуткам
Продолжительность промежутка : 40 мс. (1,00 видеокадр)
Время предзагрузки промежутка : 504 мс.
Библиотека кодирования : LAME3.99r
Настройки программы : -m s -V 4 -q 2 -lowpass 17 -b 128





   Похожие торренты   Торрент   Размер 
В этой теме нет новых непрочитанных сообщений. Холод. Научное расследование Сергея Малозёмова [14.12] (2013) SATRip

47 | 16

544.1 МБ

В этой теме нет новых непрочитанных сообщений. Еда живая и мертвая - Научное расследование Сергея Малозёмова [эфир от 07.12] (2013) SATRip

1395 | 39

601.47 МБ

В этой теме нет новых непрочитанных сообщений. Еда живая и мёртвая. Вся правда о грибах. Научное расследование Сергея Малозёмова [эфир от 26.11] (2016) WEBRip-AVC

28 | 0

661.64 МБ

В этой теме нет новых непрочитанных сообщений. Еда живая и мертвая - Научно-кулинарная программа Сергея Малозёмова [эфир от 02.04] (2016) WEBRip-AVC

20 | 3

637.32 МБ

В этой теме нет новых непрочитанных сообщений. Еда живая и мертвая - Научно-кулинарная программа Сергея Малозёмова [эфир от 19.03] (2016) WEBRip-AVC

238 | 20

633.19 МБ

В этой теме нет новых непрочитанных сообщений. Еда живая и мертвая - Научно-кулинарная программа Сергея Малозёмова [эфир от 09.04] (2016) WEBRip-AVC

27 | 2

662.69 МБ

В этой теме нет новых непрочитанных сообщений. Еда живая и мертвая - Научно-кулинарная программа Сергея Малозёмова [эфир от 05.03 и 12.03] (2016) WEBRip-AVC

164 | 21

1.22 ГБ




Вы не можете начинать темы
Вы не можете отвечать на сообщения
Вы не можете редактировать свои сообщения
Вы не можете удалять свои сообщения
Вы не можете добавлять вложения

Перейти:  
Для Мосгорсуда, Роскомнадзора и рекламодателей: mosgorsud-torrent[собачка]yandex.ru
 Вход
ppkBB3cker v.2 © 2008-2014 @ PPK
[ Time : 0.019s | 14 Queries | GZIP : Off ]
CGP output time : 1.043s | 5 Queries | GZIP : Off

Торрент трекер RUTOR.IN, Не можете зайти на rutor.org? Какой новый адрес рутор? Какое зеркало рутор? Не работает rutor.org и зеркала? Тогда наш торрент специально для вас. Rutor.in неофициальное зеркало rutor. В случае если у Вас заблокирован rutor или вдруг Вы не можете на него зайти, то Вы без труда сможете скачать бесплатно и без рекламы последние новинки кино, игр, сериалов и прочего у нас, на Rutor.in. Не нужно использовать прокси, чтобы зайти на рутор, достаточно воспользоваться нашим ресурсом. Все новые фильмы, игры, сериалы, книги и музыка за 2013 и 2014 годы через торрент бесплатно. Скачивайте фильмы в хорошем качестве, игры для пк, xbox, playstation без регистрации. У нас вы найдете новые Зарубежные сериалы и Русские сериалы 2013, 2014, 2015 годов. Оставайтесь с нами, качайте любимые фильмы, игры, сериалы, книги и музыку.