img image001 image001 image001 image001 image001 image001 image001 image001 image001 image001 image001 image001 image001 image001 image001

Planets Sun Sun Sun
Статистика раздачи
Автор: Nickolas3434 | Размер: 11.74 ГБ | Добавлен: 15 дек 2014
Раздают: 310    Качают: 76
Скачать торрент
Скачать торрент
Описание торрента

СообщениеДобавлено: 15 дек 2014 

Южные моря 3D: Атолл Бикини и Маршалловы острова
Die Südsee 3D - Bikini Atoll und Marshallinseln
The South Seas 3D: Bikini Atoll & Marshall Islands



Год выпуска: 2012
Страна: Германия (KSM)
Жанр: Документальный
Продолжительность: 1:39:40

Перевод: Профессиональный одноголосый закадровый (лицензия)

Режиссер: Норберт Вандер / Norbert Vander



Описание: Южная акватория Тихого океана традиционно ассоциируется с необъятными водными просторами, экзотическими островами и песчаными пляжами. Атолл Бикини, подаривший название самой известной модели женского купальника, обрел печальную славу после серии ядерных испытаний, произведенных США по окончании Второй мировой войны. Чтобы определить степень разрушительного воздействия смертоносного оружия, в его лагуне были размещены десятки самых разных судов, которые после серии взрывов опустились на океанское дно.
В течение десятилетий никто не посещал этот регион из-за опасности радиоактивного воздействия. Уникальные съемки позволят увидеть кладбище затонувших кораблей, узнать, как изменилась за 60 лет флора и фауна некогда удивительной по своей красоте лагуны, оценить, как действия человека повлияли на уникальную экосистему этого региона. Маршалловы острова — настоящее жемчужное ожерелье Тихого океана. Архипелаг, состоящий из двух параллельных цепей и насчитывающий 29 плоских коралловых атоллов, по праву считается одним из красивейших уголков планеты.




Релиз на Blu-Ray (DVD) (Россия): 17 июля 2013 (15 августа 2013)





Качество: BDRip (by Ash61) (исх. BD 3D Ger)
Контейнер: MKV
Формат 3D: Half OverUnder / Вертикальная анаморфная стереопара
Порядок ракурсов: левый ракурс первый
Видео кодек: x264
Аудио кодек: AC3



Видео: AVC / 23,976 fps / 1920х1080p / 15.2 Mbps

Аудио:
#1 - Русский / AC3 / 48 KHz / 5.1 ch / 640 Kbps (VO - BD 3D Rus)
#2 - Английский / AC3 / 48 KHz / 5.1 ch / 640 Kbps (BD 3D Ger)

Субтитры: Отсутствуют

General
Unique ID : 190737629579880080334482324578361861752 (0x8F7EBB3214DDB20E906C6CB3662AE678)
Complete name : E:TheSouthSeas.BikiniAtollAndMarshallIslands(3D)2012.halfOU(Ash61).mkv
Format : Matroska
Format version : Version 2
File size : 11.7 GiB
Duration : 1h 39mn
Overall bit rate : 16.9 Mbps
Movie name : Южные моря 3D: Атолл Бикини и Маршалловы острова / The South Seas 3D: Bikini Atoll And Marshall Islands (3D) 2012
Encoded date : UTC 2013-08-04 14:45:03
Writing application : mkvmerge v5.8.0 ('No Sleep / Pillow') built on Sep 2 2012 15:37:04
Writing library : libebml v1.2.3 + libmatroska v1.3.0

Video
ID : 1
Format : AVC
Format/Info : Advanced Video Codec
Format profile : High@L4.1
Format settings, CABAC : Yes
Format settings, ReFrames : 4 frames
Codec ID : V_MPEG4/ISO/AVC
Duration : 1h 39mn
Bit rate : 15.2 Mbps
Width : 1 920 pixels
Height : 1 080 pixels
Display aspect ratio : 16:9
Frame rate mode : Constant
Frame rate : 23.976 fps
Color space : YUV
Chroma subsampling : 4:2:0
Bit depth : 8 bits
Scan type : Progressive
Bits/(Pixel*Frame) : 0.307
Stream size : 10.6 GiB (90%)
Title : BDRip by Ash61
Writing library : x264 core 129 r2245 bc13772
Encoding settings : cabac=1 / ref=4 / deblock=1:-3:-3 / analyse=0x3:0x113 / me=umh / subme=9 / psy=1 / psy_rd=1.00:0.15 / mixed_ref=1 / me_range=32 / chroma_me=1 / trellis=2 / 8x8dct=1 / cqm=0 / deadzone=21,11 / fast_pskip=1 / chroma_qp_offset=-3 / threads=12 / lookahead_threads=2 / sliced_threads=0 / nr=0 / decimate=1 / interlaced=0 / bluray_compat=0 / constrained_intra=0 / bframes=7 / b_pyramid=2 / b_adapt=2 / b_bias=0 / direct=3 / weightb=1 / open_gop=0 / weightp=2 / keyint=250 / keyint_min=23 / scenecut=40 / intra_refresh=0 / rc_lookahead=60 / rc=crf / mbtree=1 / crf=18.0 / qcomp=0.70 / qpmin=10 / qpmax=69 / qpstep=4 / vbv_maxrate=40000 / vbv_bufsize=30000 / crf_max=0.0 / nal_hrd=none / frame-packing=4 / ip_ratio=1.40 / aq=1:0.70
Language : German
Default : Yes
Forced : No

Audio #1
ID : 2
Format : AC-3
Format/Info : Audio Coding 3
Mode extension : CM (complete main)
Format settings, Endianness : Big
Codec ID : A_AC3
Duration : 1h 39mn
Bit rate mode : Constant
Bit rate : 640 Kbps
Channel(s) : 6 channels
Channel positions : Front: L C R, Side: L R, LFE
Sampling rate : 48.0 KHz
Bit depth : 16 bits
Compression mode : Lossy
Stream size : 456 MiB (4%)
Title : Одноголосый закадровый - BD3D
Language : Russian
Default : Yes
Forced : No

Audio #2
ID : 3
Format : AC-3
Format/Info : Audio Coding 3
Mode extension : CM (complete main)
Format settings, Endianness : Big
Codec ID : A_AC3
Duration : 1h 39mn
Bit rate mode : Constant
Bit rate : 640 Kbps
Channel(s) : 6 channels
Channel positions : Front: L C R, Side: L R, LFE
Sampling rate : 48.0 KHz
Bit depth : 16 bits
Compression mode : Lossy
Stream size : 456 MiB (4%)
Language : English
Default : No
Forced : No

Menu
00:00:00.000 : :1
00:14:00.048 : :2
00:26:44.895 : :3
00:41:53.428 : :4
00:54:56.168 : :5
01:05:26.339 : :6
01:21:14.995 : :7
01:33:39.781 : :8





















   Похожие торренты   Торрент   Размер 
В этой теме нет новых непрочитанных сообщений. Галапагосские острова / Südamerika: Faszination Galapagos (2012) BDRip 1080p | 3D-Video | halfOU

64 | 14

7.99 ГБ

В этой теме нет новых непрочитанных сообщений. Весенний праздник бикини / Bikini Spring Break (2012) BDRip 720p | L2

10 | 6

3.37 ГБ

В этой теме нет новых непрочитанных сообщений. В сердце моря / In the Heart of the Sea (2015) BDRip 1080p от Ash61 | 3D-Video | halfOU | Чистый звук

1792 | 172

16.43 ГБ

В этой теме нет новых непрочитанных сообщений. Резня в бикини / Bikini Mayhem (2015) WEB-DLRip 1080p | L2

209 | 18

2.49 ГБ

В этой теме нет новых непрочитанных сообщений. Серенити / Южные моря / HDScape: HDWindow - Serenity (2006) BDRip 1080p

4 | 3

4.27 ГБ

В этой теме нет новых непрочитанных сообщений. Девушки в Бикини - Тройная фантазия / Bikini Destinations Triple Fantasy (2006) Blu-ray 1080p

122 | 3

20.15 ГБ

В этой теме нет новых непрочитанных сообщений. Весенний праздник бикини / Bikini Spring Break (2012) DVDRip | L2

57 | 7

1.43 ГБ




Вы не можете начинать темы
Вы не можете отвечать на сообщения
Вы не можете редактировать свои сообщения
Вы не можете удалять свои сообщения
Вы не можете добавлять вложения

Перейти:  
Для Мосгорсуда, Роскомнадзора и рекламодателей: mosgorsud-torrent[собачка]yandex.ru
 Вход
ppkBB3cker v.2 © 2008-2014 @ PPK
[ Time : 5.203s | 15 Queries | GZIP : Off ]

Торрент трекер RUTOR.IN, Не можете зайти на rutor.org? Какой новый адрес рутор? Какое зеркало рутор? Не работает rutor.org и зеркала? Тогда наш торрент специально для вас. Rutor.in неофициальное зеркало rutor. В случае если у Вас заблокирован rutor или вдруг Вы не можете на него зайти, то Вы без труда сможете скачать бесплатно и без рекламы последние новинки кино, игр, сериалов и прочего у нас, на Rutor.in. Не нужно использовать прокси, чтобы зайти на рутор, достаточно воспользоваться нашим ресурсом. Все новые фильмы, игры, сериалы, книги и музыка за 2013 и 2014 годы через торрент бесплатно. Скачивайте фильмы в хорошем качестве, игры для пк, xbox, playstation без регистрации. У нас вы найдете новые Зарубежные сериалы и Русские сериалы 2013, 2014, 2015 годов. Оставайтесь с нами, качайте любимые фильмы, игры, сериалы, книги и музыку.