img image001 image001 image001 image001 image001 image001 image001 image001 image001 image001 image001 image001 image001 image001 image001

Planets Sun Sun Sun
Статистика раздачи
Автор: Nickolas3434 | Размер: 12.28 ГБ | Добавлен: 17 дек 2014
Раздают: 224    Качают: 95
Скачать торрент
Скачать торрент
Описание торрента

СообщениеДобавлено: 17 дек 2014 

Информация о фильме
Название: Discovery. Как устроена Вселенная
Оригинальное название: How the Universe Works
Год выхода: 2014
Жанр: Документальный, научно-познавательный, астрономия, космос
Режиссер: Mark Bridge
В ролях: Adam Warner, Peter Chinn, Louise Say, Lorne Townend, Shaun Trevisick, Kate Dart, Alex Hearle
О фильме:
01. Путешествие из центра Солнца / Jorney from the cente of the Sun
Само наше существование является результатом термоядерных реакций, происходящих внутри солнца. Нырните в облако раскаленных газов и узнайте, как оно устроено.
02. Гибель вселенной / End of the Universe
Как и когда погибнет вселенная? Гравитация и темная материя готовы уничтожить наш мир. Когда же расширение и темная энергия достигнут критической точки?
03. Юпитер: Разрушитель или Спаситель? / Jupiter: Destroyer or Savior?
Как сформировался газовый гигант Юпитер? Мы познакомимся с устройством космоса, проясняя необычные явления с помощью современной астрономии.
04. Первая секунда после большого взрыва / First Second of the Big Bang
Эта программа расскажет обо всем, что нужно знать о космосе: от Большого взрыва до галактик, звезд и планет. Что происходило в первые мгновения после Большого взрыва?
05. Есть ли жизнь на Сатурне? / Is Saturn Alive?
Сатурн с его суровой погодой, развивающейся системой колец и геологической активностью на одной из лун переписал учебники астрономии. Вас ждет рассказ о самых последних открытиях.
06. Оружие массового уничтожения (Вымирание) / Weapons of Mass Extinction
Узнайте, каковы шансы нашего вида пережить извержения супервулканов, падения астероидов и новые ледниковые периоды на планете Земля.
07. Чёрная дыра создала Млечный путь? / Did a Black Hole Build the Milky Way?
Откуда взялся Млечный путь? В сердце нашей галактики находится огромная черная дыра. Поможет ли она ответить на этот непростой вопрос?
08. Путешествие к звездам / Our Voyage to the Stars
Однажды наша Земля перестанет быть пригодной для жизни. Чтобы выжить нам придется найти новый дом среди звезд. Познакомьтесь с учеными, которые уже ведут работы в этом направлении.
09. Поиски второй Земли / The Search for a Second Earth
Наша Земля не уникальна и она лишь одна из миллиардов планет галактики Млечный путь. Сейчас эти планеты исследуются на предмет наличия на них атмосферы, жидкой воды и, возможно, даже самой жизни. Придёт время и мы узнаем где в ночном небе можно найти ещё одну Землю, поскольку существует научный метод определения жизни на других планетах. Скоро мы сможем узнать правду. Но готовы ли мы к ней?
Добавлена 9 серия. Приятного просмотра!

Когда раздача ведётся путём добавления новых серий, при каждом добавлении создётся новый торрент. Чтобы начать докачку новой серии, пользователям необходимо сделать следующее:
(1) остановить скачивание,
(2) удалить старый торрент у себя из клиента (старые серии удалять не надо),
(3) скачать новый торрент и запустить его у себя в клиенте вместо старого, при этом указать клиенту путь в старую папку, куда и должно происходить скачивание новых серий.
Ваш клиент при этом должен произвести хеширование (проверку) старой папки (если не производит сам - помогите ему сделать это), и будет докачивать только те серии, которых у вас ещё нет. Старые серии при этом не удаляются, а продолжают раздаваться!
Eсли вы уже удалили старые серии, то предотвратить повторную закачку старых серий можно, отжав галочку в соответсвующих местах при запуске нового торрента. По возможности, желательно не удалять старые серии как можно дольше, чтобы релизёр не столько продолжал раздавать старые серии, а смог сконцентрироваться на новых.


Официальный сайт
Страна: США
Студия: Pioneer Productions, Discovery Channel
Продолжительность: ~00:44:05
Перевод: Профессиональный (одноголосый закадровый) - студия Кирилица
Файл
Кодек: H.264
Качество: HDTVRip 720p
Видео: MKV,1280x720, 25.00 fps, 4482 kbps
Звук: AC3 2ch, 48kHz, 192 kbps

Format : Matroska
Format version : Version 2
File size : 1.38 GiB
Duration : 44mn 4s
Overall bit rate mode : Constant
Overall bit rate : 4 482 Kbps
Encoded date : UTC 2014-10-20 11:39:18
Writing application : TMPGEnc Video Mastering Works 5 Version. 5.0.6.38
Writing library : TMPGEnc Video Mastering Works 5 Version. 5.0.6.38
Video
ID : 2
Format : AVC
Format/Info : Advanced Video Codec
Format profile : High@L3.1
Format settings, CABAC : Yes
Format settings, ReFrames : 3 frames
Codec ID : V_MPEG4/ISO/AVC
Duration : 44mn 4s
Bit rate mode : Constant
Bit rate : 4 201 Kbps
Nominal bit rate : 4 500 Kbps / 4 500 Kbps
Width : 1 280 pixels
Height : 720 pixels
Display aspect ratio : 16:9
Frame rate mode : Constant
Frame rate : 25.000 fps
Standard : NTSC
Color space : YUV
Chroma subsampling : 4:2:0
Bit depth : 8 bits
Scan type : Progressive
Bits/(Pixel*Frame) : 0.182
Stream size : 1.29 GiB (94%)
Writing library : x264 core 114
Encoding settings : cabac=1 / ref=3 / deblock=1:0:0 / analyse=0x3:0x113 / me=hex / subme=7 / psy=1 / psy_rd=1.00:0.00 / mixed_ref=1 / me_range=16 / chroma_me=1 / trellis=1 / 8x8dct=1 / cqm=2 / deadzone=21,11 / fast_pskip=1 / chroma_qp_offset=-2 / threads=6 / sliced_threads=0 / slices=1 / nr=0 / decimate=1 / interlaced=0 / constrained_intra=0 / bframes=3 / b_pyramid=0 / b_adapt=1 / b_bias=0 / direct=1 / weightb=1 / open_gop=0 / weightp=2 / keyint=250 / keyint_min=25 / scenecut=40 / intra_refresh=0 / rc_lookahead=40 / rc=cbr / mbtree=1 / bitrate=4500 / ratetol=1.0 / qcomp=0.60 / qpmin=3 / qpmax=69 / qpstep=4 / vbv_maxrate=4500 / vbv_bufsize=4489 / nal_hrd=cbr / ip_ratio=1.40 / aq=1:1.00
Default : Yes
Forced : No
Color primaries : BT.709
Transfer characteristics : BT.709
Matrix coefficients : BT.709
Audio
ID : 1
Format : AC-3
Format/Info : Audio Coding 3
Mode extension : CM (complete main)
Format settings, Endianness : Big
Codec ID : A_AC3
Duration : 44mn 4s
Bit rate mode : Constant
Bit rate : 192 Kbps
Channel(s) : 2 channels
Channel positions : Front: L R
Sampling rate : 48.0 KHz
Bit depth : 16 bits
Compression mode : Lossy
Stream size : 60.5 MiB (4%)
Default : Yes
Forced : No

Релиз от:



   Похожие торренты   Торрент   Размер 
В этой теме нет новых непрочитанных сообщений. Discovery: Как устроена Вселенная / How the Universe Works [03x01-05] (2014) HDTVRip 720p

92 | 36

6.82 ГБ

В этой теме нет новых непрочитанных сообщений. Discovery: Как устроена Вселенная / How the Universe Works [03x01-06] (2014) HDTVRip 720p | P1

44 | 85

8.19 ГБ

В этой теме нет новых непрочитанных сообщений. Discovery. Как устроена Вселенная / How the Universe Works [03x01] (2014) HDTVRip 720p

81 | 5

1.38 ГБ

В этой теме нет новых непрочитанных сообщений. Discovery. Как устроена Вселенная / How the Universe Works [03x01-02] (2014) HDTVRip 720p

61 | 4

2.75 ГБ

В этой теме нет новых непрочитанных сообщений. Discovery: Как устроена Вселенная / How the Universe Works [03x01-04] (2014) HDTVRip 720p

82 | 33

5.46 ГБ

В этой теме нет новых непрочитанных сообщений. Discovery: Как устроена Вселенная / How the Universe Works [03x01-07] (2014) HDTVRip 720p | P1

130 | 52

9.55 ГБ

В этой теме нет новых непрочитанных сообщений. Discovery: Как устроена Вселенная / How the Universe Works [03x01-08] (2014) HDTVRip 720p | P1

136 | 102

10.92 ГБ




Вы не можете начинать темы
Вы не можете отвечать на сообщения
Вы не можете редактировать свои сообщения
Вы не можете удалять свои сообщения
Вы не можете добавлять вложения

Перейти:  
Для Мосгорсуда, Роскомнадзора и рекламодателей: mosgorsud-torrent[собачка]yandex.ru
 Вход
ppkBB3cker v.2 © 2008-2014 @ PPK
[ Time : 0.036s | 16 Queries | GZIP : Off ]

cron