img image001 image001 image001 image001 image001 image001 image001 image001 image001 image001 image001 image001 image001 image001 image001

Planets Sun Sun Sun
Статистика раздачи
Автор: Nickolas3434 | Размер: 5.82 ГБ | Добавлен: 31 дек 2014
Раздают: 285    Качают: 46
Скачать торрент
Скачать торрент
Описание торрента

СообщениеДобавлено: 31 дек 2014 

Заколдованное королевство / Enchanted Kingdom

Русское название: Заколдованное королевство
Оригинальное название: Enchanted Kingdom
Год выпуска: 2013
Жанр: документальный
Выпущено: Великобритания
Режиссер: Патрик Моррис, Нил Найтингейл
В ролях: Идрис Эльба , Хейли Джоэнн Бэйкон , India Dale-Hill
Перевод: Профессиональный (одноголосый)

Сюжет фильма:
Документальный фильм о дикой природе Африки, снятый за 500 дней с применением новейших инновационных 3D технологий, является, самым амбициозным и зрелищным проектом о живой природе известнейшего мирового производителя фильмов об истории Земли - компании BBC.

Качество: BDRip 720p (исходник Blu-ray)
Формат: AVC (библиотека кодирования x.264)
Контейнер (Расширение): MKV
Видео: 1280x692 (1.850), 7428 Кбит/сек, 23,976 кадр/сек, 0,350 Бит/[Пиксели*Кадры]
Аудио №1: русский / AC3 / 5.1 / 48 kHz / 640 kbps / 16 bit |Одноголосый закадровый, студия «Омикрон»|
Аудио №2: русский / AC3 / 5.1 / 48 kHz / 640 kbps / 16 bit |Одноголосый закадровый, Д.Есарев|
Аудио №3: английский / AC3 / 5.1 / 48 kHz / 640 kbps / 16 bit
Субтитры: русские (Russian)
Навигация по главам(Чаптеры): есть
Продолжительность: 01:27:19
Автор рипа: Сообщество:

Format : Matroska
Format version : Version 2
File size : 5.82 GiB
Duration : 1h 27mn
Overall bit rate : 9 539 Kbps
Movie name : Zakoldovannoe korolevstvo.(2013).BDRip.720p.[denis100]
Encoded date : UTC 2014-12-28 10:48:50
Writing application : mkvmerge v5.8.0 ('No Sleep / Pillow') built on Sep 2 2012 15:37:04
Writing library : libebml v1.2.3 + libmatroska v1.3.0
Video
ID : 1
Format : AVC
Format/Info : Advanced Video Codec
Format profile : High@L4.1
Format settings, CABAC : Yes
Format settings, ReFrames : 9 frames
Codec ID : V_MPEG4/ISO/AVC
Duration : 1h 27mn
Bit rate : 7 429 Kbps
Width : 1 280 pixels
Height : 692 pixels
Display aspect ratio : 1.850
Frame rate : 23.976 fps
Color space : YUV
Chroma subsampling : 4:2:0
Bit depth : 8 bits
Scan type : Progressive
Bits/(Pixel*Frame) : 0.350
Stream size : 4.53 GiB (78%)
Title : Zakoldovannoe korolevstvo.(2013).BDRip.720p.[denis100]
Writing library : x264 core 142 r2491 24e4fed
Encoding settings : cabac=1 / ref=9 / deblock=1:-3:-3 / analyse=0x3:0x133 / me=umh / subme=11 / psy=1 / psy_rd=1.00:0.10 / mixed_ref=1 / me_range=32 / chroma_me=1 / trellis=2 / 8x8dct=1 / cqm=0 / deadzone=21,11 / fast_pskip=0 / chroma_qp_offset=-3 / threads=6 / lookahead_threads=1 / sliced_threads=0 / nr=0 / decimate=1 / interlaced=0 / bluray_compat=0 / constrained_intra=0 / bframes=8 / b_pyramid=2 / b_adapt=2 / b_bias=0 / direct=3 / weightb=1 / open_gop=0 / weightp=2 / keyint=240 / keyint_min=23 / scenecut=40 / intra_refresh=0 / rc=crf / mbtree=0 / crf=18.0 / qcomp=0.60 / qpmin=0 / qpmax=69 / qpstep=4 / ip_ratio=1.40 / pb_ratio=1.30 / aq=2:0.90
Language : English
Default : Yes
Forced : No
Audio #1
ID : 2
Format : AC-3
Format/Info : Audio Coding 3
Mode extension : CM (complete main)
Codec ID : A_AC3
Duration : 1h 27mn
Bit rate mode : Constant
Bit rate : 640 Kbps
Channel(s) : 6 channels
Channel positions : Front: L C R, Side: L R, LFE
Sampling rate : 48.0 KHz
Bit depth : 16 bits
Compression mode : Lossy
Stream size : 400 MiB (7%)
Title : Одноголосый закадровый, студия «Омикрон»
Language : Russian
Default : Yes
Forced : No
Audio #2
ID : 3
Format : AC-3
Format/Info : Audio Coding 3
Mode extension : CM (complete main)
Codec ID : A_AC3
Duration : 1h 27mn
Bit rate mode : Constant
Bit rate : 640 Kbps
Channel(s) : 6 channels
Channel positions : Front: L C R, Side: L R, LFE
Sampling rate : 48.0 KHz
Bit depth : 16 bits
Compression mode : Lossy
Stream size : 400 MiB (7%)
Title : Одноголосый закадровый, Д.Есарев
Language : Russian
Default : No
Forced : No
Audio #3
ID : 4
Format : AC-3
Format/Info : Audio Coding 3
Mode extension : CM (complete main)
Codec ID : A_AC3
Duration : 1h 27mn
Bit rate mode : Constant
Bit rate : 640 Kbps
Channel(s) : 6 channels
Channel positions : Front: L C R, Side: L R, LFE
Sampling rate : 48.0 KHz
Bit depth : 16 bits
Compression mode : Lossy
Stream size : 400 MiB (7%)
Title : English
Language : English
Default : No
Forced : No
Text
ID : 5
Format : UTF-8
Codec ID : S_TEXT/UTF8
Codec ID/Info : UTF-8 Plain Text
Title : Russian
Language : Russian
Default : No
Forced : No
Menu
00:00:00.000 : en:Chapter 01
00:00:39.038 : en:Chapter 02
00:03:10.190 : en:Chapter 03
00:07:20.148 : en:Chapter 04
00:11:32.858 : en:Chapter 05
00:14:10.933 : en:Chapter 06
00:20:00.282 : en:Chapter 07
00:20:54.253 : en:Chapter 08
00:23:13.392 : en:Chapter 09
00:25:41.998 : en:Chapter 10
00:28:11.356 : en:Chapter 11
00:30:39.838 : en:Chapter 12
00:32:09.010 : en:Chapter 13
00:36:59.592 : en:Chapter 14
00:39:20.191 : en:Chapter 15
00:43:40.284 : en:Chapter 16
00:46:38.796 : en:Chapter 17
00:48:13.891 : en:Chapter 18
00:52:50.876 : en:Chapter 19
00:56:49.364 : en:Chapter 20
00:57:45.462 : en:Chapter 21
01:01:04.661 : en:Chapter 22
01:05:03.399 : en:Chapter 23
01:10:12.958 : en:Chapter 24
01:13:20.729 : en:Chapter 25
01:16:34.423 : en:Chapter 26
01:21:15.871 : en:Chapter 27
01:24:40.575 : en:Chapter 28




   Похожие торренты   Торрент   Размер 
В этой теме нет новых непрочитанных сообщений. Заколдованное королевство / Enchanted Kingdom (2013) BDRip-AVC от NNNB | P1,A

192 | 15

2.18 ГБ

В этой теме нет новых непрочитанных сообщений. Заколдованное королевство / Enchanted Kingdom (2013) BDRip 1080p от ExKinoRay | P1, A

61 | 6

12.54 ГБ

В этой теме нет новых непрочитанных сообщений. Заколдованное Королевство / Enchanted Kingdom (2013) HDRip от torrentfilm | P1

97 | 13

691.38 МБ

В этой теме нет новых непрочитанных сообщений. Королевство. Приключение Элизы / The Enchanted Kingdom (2013) JAVA

5 | 3

16.94 МБ

В этой теме нет новых непрочитанных сообщений. Королевство. Приключения Элизы / The Enchanted Kingdom (2010) PC

56 | 2

34.27 МБ

В этой теме нет новых непрочитанных сообщений. Королевство. Приключение Элизы / The Enchanted Kingdom (2012) Android

50 | 2

16.86 МБ

В этой теме нет новых непрочитанных сообщений. Королевство обезьян / Monkey Kingdom (2015) BDRip 1080p от NNNB | Лицензия

181 | 73

7.76 ГБ




Вы не можете начинать темы
Вы не можете отвечать на сообщения
Вы не можете редактировать свои сообщения
Вы не можете удалять свои сообщения
Вы не можете добавлять вложения

Перейти:  
Для Мосгорсуда, Роскомнадзора и рекламодателей: mosgorsud-torrent[собачка]yandex.ru
 Вход
ppkBB3cker v.2 © 2008-2014 @ PPK
[ Time : 0.039s | 15 Queries | GZIP : Off ]

Торрент трекер RUTOR.IN, Не можете зайти на rutor.org? Какой новый адрес рутор? Какое зеркало рутор? Не работает rutor.org и зеркала? Тогда наш торрент специально для вас. Rutor.in неофициальное зеркало rutor. В случае если у Вас заблокирован rutor или вдруг Вы не можете на него зайти, то Вы без труда сможете скачать бесплатно и без рекламы последние новинки кино, игр, сериалов и прочего у нас, на Rutor.in. Не нужно использовать прокси, чтобы зайти на рутор, достаточно воспользоваться нашим ресурсом. Все новые фильмы, игры, сериалы, книги и музыка за 2013 и 2014 годы через торрент бесплатно. Скачивайте фильмы в хорошем качестве, игры для пк, xbox, playstation без регистрации. У нас вы найдете новые Зарубежные сериалы и Русские сериалы 2013, 2014, 2015 годов. Оставайтесь с нами, качайте любимые фильмы, игры, сериалы, книги и музыку.