img image001 image001 image001 image001 image001 image001 image001 image001 image001 image001 image001 image001 image001 image001 image001

Planets Sun Sun Sun
Статистика раздачи
Автор: Nickolas3434 | Размер: 3.99 ГБ | Добавлен: 04 янв 2015
Раздают: 94    Качают: 7
Скачать торрент
Скачать торрент
Описание торрента

СообщениеДобавлено: 04 янв 2015 




На глубине
Into the Deep



#77
Год выпуска: 1994
Страна: США, Япония (IMAX)
Жанр: Документальный, Видовой
Продолжительность: 00:34:19
Перевод: Субтитрами (не много и необязательны)
Режиссер: Ховард Холл / Howard Hall
Рассказчик: Кейт Неллиган / Kate Nelligan


Описание: «Жизнь глубин» переносит зрителей в захватывающее 3D-исследование жизни подводного мира. Впервые используя IMAX 3D-камеру под водой, удалось захватить картины уникальной морской жизни и великолепные подводные пейзажи. Зрители сами становится обитателями морского дна, открывая для себя калейдоскоп жизни в океане через призму технологии IMAX 3D.


Премьера (мир): 3 ноября 1994




Качество: BDRip (by Ash61)
Контейнер: MKV
Формат 3D: Half OverUnder / Вертикальная анаморфная стереопара
Порядок ракурсов: левый ракурс первый
Видео кодек: x264
Аудио кодек: AC3


Видео: AVC / 23,976 fps / 1920х1080p / 14.5 Mbps
Аудио: Английский / AC3 / 48 KHz / 5.1 ch / 640 Kbps (Original - BD 3D)
Субтитры (SRT):
Вшитые (softsub):
#1 - Русские Полные (перевод любительский - Ash61)
#2 - English SDH
Внешние (UTF-8):
#1 - Русские Полные (перевод любительский - Ash61)
General
Unique ID : 233704468908402721027052757887144086370 (0xAFD1D7EE5B4092E28806D4BA2C7ECB62)
Complete name : E:IntoTheDeep[IMAX](1994)3D-halfOU(Ash61)Rus.SubsIntoTheDeep[IMAX](1994)3D-halfOU(Ash61)Rus.Subs.mkv
Format : Matroska
Format version : Version 2
File size : 3.99 GiB
Duration : 34mn 20s
Overall bit rate : 16.6 Mbps
Movie name : Жизнь глубин / Into the Deep (1994) IMAX 3D
Encoded date : UTC 2015-01-02 20:09:50
Writing application : mkvmerge v5.8.0 ('No Sleep / Pillow') built on Sep 2 2012 15:37:04
Writing library : libebml v1.2.3 + libmatroska v1.3.0
Video
ID : 1
Format : AVC
Format/Info : Advanced Video Codec
Format profile : High@L4.1
Format settings, CABAC : Yes
Format settings, ReFrames : 4 frames
Codec ID : V_MPEG4/ISO/AVC
Duration : 34mn 20s
Bit rate : 15.7 Mbps
Width : 1 920 pixels
Height : 1 080 pixels
Display aspect ratio : 16:9
Frame rate mode : Constant
Frame rate : 23.976 fps
Color space : YUV
Chroma subsampling : 4:2:0
Bit depth : 8 bits
Scan type : Progressive
Bits/(Pixel*Frame) : 0.315
Stream size : 3.76 GiB (94%)
Title : BDRip by Ash61
Writing library : x264 core 138 r2358 9e941d1
Encoding settings : cabac=1 / ref=4 / deblock=1:-3:-3 / analyse=0x3:0x113 / me=umh / subme=10 / psy=1 / psy_rd=1.00:0.00 / mixed_ref=1 / me_range=32 / chroma_me=1 / trellis=2 / 8x8dct=1 / cqm=0 / deadzone=21,11 / fast_pskip=1 / chroma_qp_offset=-2 / threads=12 / lookahead_threads=2 / sliced_threads=0 / nr=0 / decimate=1 / interlaced=0 / bluray_compat=0 / constrained_intra=0 / bframes=8 / b_pyramid=2 / b_adapt=2 / b_bias=0 / direct=3 / weightb=1 / open_gop=0 / weightp=2 / keyint=250 / keyint_min=23 / scenecut=40 / intra_refresh=0 / rc_lookahead=60 / rc=crf / mbtree=1 / crf=17.5 / qcomp=0.70 / qpmin=0 / qpmax=69 / qpstep=4 / vbv_maxrate=40000 / vbv_bufsize=30000 / crf_max=0.0 / nal_hrd=none / frame-packing=4 / ip_ratio=1.40 / aq=1:0.70
Language : English
Default : Yes
Forced : No
Audio
ID : 2
Format : AC-3
Format/Info : Audio Coding 3
Mode extension : CM (complete main)
Format settings, Endianness : Big
Codec ID : A_AC3
Duration : 34mn 20s
Bit rate mode : Constant
Bit rate : 640 Kbps
Channel(s) : 6 channels
Channel positions : Front: L C R, Side: L R, LFE
Sampling rate : 48.0 KHz
Bit depth : 16 bits
Compression mode : Lossy
Stream size : 157 MiB (4%)
Title : Original - BD 3D
Language : English
Default : Yes
Forced : No
Text #1
ID : 3
Format : UTF-8
Codec ID : S_TEXT/UTF8
Codec ID/Info : UTF-8 Plain Text
Title : Полные (перевод - Ash61)
Language : Russian
Default : Yes
Forced : No
Text #2
ID : 4
Format : UTF-8
Codec ID : S_TEXT/UTF8
Codec ID/Info : UTF-8 Plain Text
Title : SDH - BD 2D
Language : English
Default : No
Forced : No
Menu
00:00:00.000 : en:1
00:04:38.987 : en:2
00:14:38.586 : en:3
00:20:30.811 : en:4
00:32:47.964 : en:5



















   Похожие торренты   Торрент   Размер 
В этой теме нет новых непрочитанных сообщений. На глубине / Into the Deep [IMAX] (1994) BDRip 1080p от Ash61 | 3D-Video | halfOU | Рус.Субтитры

90 | 6

4.15 ГБ

В этой теме нет новых непрочитанных сообщений. На глубине / Into the Deep [IMAX] 2D/3D (1994) BDRemux 1080p от Ash61 | 3D-Video | L1

37 | 7

12.73 ГБ

В этой теме нет новых непрочитанных сообщений. Амазония / Amazonia (2013) BDRip 1080p от Ash61 | 3D-Video | halfOU | Субтитры

346 | 149

13.83 ГБ

В этой теме нет новых непрочитанных сообщений. Царство очарования 3Д / Enchanted Kingdom 3D (2013) BDRip 1080p от Ash61 | 3D-Video | halfOU | Рус.субтитры

118 | 17

12.49 ГБ

В этой теме нет новых непрочитанных сообщений. Остров лемуров: Мадагаскар / Island of Lemurs: Madagascar (2014) BDRip 1080p от Ash61 | 3D-Video | halfOU | Рус.субтитры

84 | 19

6.04 ГБ

В этой теме нет новых непрочитанных сообщений. Остров лемуров: Мадагаскар / Island of Lemurs: Madagascar (2014) BDRip 1080p от Ash61 | 3D-Video | halfOU | Рус.субтитры

38 | 4

5.68 ГБ

В этой теме нет новых непрочитанных сообщений. Лондонский Музей естествознания вживую / Natural History Museum Alive (2014) BDRip 1080p от Ash61 | 3D-Video | halfOU | Рус.субтитры

235 | 45

3.57 ГБ




Вы не можете начинать темы
Вы не можете отвечать на сообщения
Вы не можете редактировать свои сообщения
Вы не можете удалять свои сообщения
Вы не можете добавлять вложения

Перейти:  
Для Мосгорсуда, Роскомнадзора и рекламодателей: mosgorsud-torrent[собачка]yandex.ru
 Вход
ppkBB3cker v.2 © 2008-2014 @ PPK
[ Time : 0.541s | 15 Queries | GZIP : Off ]

Торрент трекер RUTOR.IN, Не можете зайти на rutor.org? Какой новый адрес рутор? Какое зеркало рутор? Не работает rutor.org и зеркала? Тогда наш торрент специально для вас. Rutor.in неофициальное зеркало rutor. В случае если у Вас заблокирован rutor или вдруг Вы не можете на него зайти, то Вы без труда сможете скачать бесплатно и без рекламы последние новинки кино, игр, сериалов и прочего у нас, на Rutor.in. Не нужно использовать прокси, чтобы зайти на рутор, достаточно воспользоваться нашим ресурсом. Все новые фильмы, игры, сериалы, книги и музыка за 2013 и 2014 годы через торрент бесплатно. Скачивайте фильмы в хорошем качестве, игры для пк, xbox, playstation без регистрации. У нас вы найдете новые Зарубежные сериалы и Русские сериалы 2013, 2014, 2015 годов. Оставайтесь с нами, качайте любимые фильмы, игры, сериалы, книги и музыку.