img image001 image001 image001 image001 image001 image001 image001 image001 image001 image001 image001 image001 image001 image001 image001

Planets Sun Sun Sun
Статистика раздачи
Автор: Nickolas3434 | Размер: 4.07 ГБ | Добавлен: 05 янв 2015
Раздают: 129    Качают: 6
Скачать торрент
Скачать торрент
Описание торрента

СообщениеДобавлено: 05 янв 2015 




Галапагосы 3D
Galapagos: The Enchanted Voyage



#77
Год выпуска: 1999
Страна: США (IMAX, Smithsonian National Museum, National Science Foundation, Mandalay Media Arts)
Жанр: Документальный, Видовой
Продолжительность: 00:38:51
Перевод: Любительский одноголосый закадровый
Режиссеры: Дэвид Кларк, Эл Гиддингс / David Clark, Al Giddings
Рассказчик (на английском): Кеннет Брэна
В фильме снимались: Кэрол Болдуин, Джон Е. МакКоскер, Дэвид Поусон, Матиас Эспиноза, Дон Либераторе


Описание: Есть на Земле место, где обитают удивительные существа, способные поразить даже бывалых путешественников и ученых. Это Галапагосские острова — один из самых необычных и красивых архипелагов на Земле. Когда-то давно они служили убежищем для пиратских судов, а затем стали национальным природным парком, где животные до сих пор не боятся человека.
В 1835 году на землю одного из островов ступила нога первого ученого. Звали его Чарльз Дарвин. Именно здесь у двадцатишестилетнего натуралиста зародилась теория, позднее перевернувшая весь мир. Но что бы произошло, если бы в то время существовал акваланг, пусть даже самый простой? Тогда великому ученому распахнул бы свои двери потрясающий подводный мир, населенный диковинными, почти сказочными созданиями. Этот фильм предлагает Вам совершить незабываемое путешествие на Галапагосы. Новейшие методы подводной съемки представят Вам возможность, о которой наши предки могли только мечтать: полюбоваться таинственной и прекрасной жизнью на глубине 1000 метров под водой!




Премьера: 27 октября 1999 (25 октября 2005)
Кассовые сборы: $27 286 021





Качество: BDRip (by Ash61)
Контейнер: MKV
Формат 3D: Half OverUnder / Вертикальная анаморфная стереопара
Порядок ракурсов: левый ракурс первый
Видео кодек: x264
Аудио кодек: AC3


Видео: AVC / 23,976 fps / 1920х1080p / 13.9 Mbps
Аудио:
#1 - Русский / AC3 / 48 KHz / 2 ch / 192 Kbps (VO)
#2 - Английский / AC3 / 48 KHz / 5.1 ch / 640 Kbps (Original - BD 3D)
Субтитры: Отсутствуют
General
Unique ID : 232012477112912237983296491944865182862 (0xAE8BFA4B7C5C0F12831AA7858790348E)
Complete name : E:Galapagos.TheEnchantedVoyage[IMAX](1999)3D-halfOU(Ash61).mkv
Format : Matroska
Format version : Version 2
File size : 4.07 GiB
Duration : 38mn 50s
Overall bit rate : 15.0 Mbps
Movie name : Галапагосы 3D / Galapagos: The Enchanted Voyage [IMAX] (1999) 3D
Encoded date : UTC 2015-01-03 10:35:08
Writing application : mkvmerge v5.8.0 ('No Sleep / Pillow') built on Sep 2 2012 15:37:04
Writing library : libebml v1.2.3 + libmatroska v1.3.0
Video
ID : 1
Format : AVC
Format/Info : Advanced Video Codec
Format profile : High@L4.1
Format settings, CABAC : Yes
Format settings, ReFrames : 4 frames
Codec ID : V_MPEG4/ISO/AVC
Duration : 38mn 50s
Bit rate : 13.9 Mbps
Width : 1 920 pixels
Height : 1 080 pixels
Display aspect ratio : 16:9
Frame rate mode : Constant
Frame rate : 23.976 fps
Color space : YUV
Chroma subsampling : 4:2:0
Bit depth : 8 bits
Scan type : Progressive
Bits/(Pixel*Frame) : 0.279
Stream size : 3.76 GiB (92%)
Title : BDRip by Ash61 (v2)
Writing library : x264 core 138 r2358 9e941d1
Encoding settings : cabac=1 / ref=4 / deblock=1:-3:-3 / analyse=0x3:0x113 / me=umh / subme=10 / psy=1 / psy_rd=1.00:0.00 / mixed_ref=1 / me_range=32 / chroma_me=1 / trellis=2 / 8x8dct=1 / cqm=0 / deadzone=21,11 / fast_pskip=1 / chroma_qp_offset=-2 / threads=12 / lookahead_threads=2 / sliced_threads=0 / nr=0 / decimate=1 / interlaced=0 / bluray_compat=0 / constrained_intra=0 / bframes=9 / b_pyramid=2 / b_adapt=2 / b_bias=0 / direct=3 / weightb=1 / open_gop=0 / weightp=2 / keyint=250 / keyint_min=23 / scenecut=40 / intra_refresh=0 / rc_lookahead=60 / rc=crf / mbtree=1 / crf=17.0 / qcomp=0.70 / qpmin=0 / qpmax=69 / qpstep=4 / vbv_maxrate=40000 / vbv_bufsize=30000 / crf_max=0.0 / nal_hrd=none / frame-packing=4 / ip_ratio=1.40 / aq=1:0.70
Language : English
Default : Yes
Forced : No
Audio #1
ID : 2
Format : AC-3
Format/Info : Audio Coding 3
Mode extension : CM (complete main)
Format settings, Endianness : Big
Codec ID : A_AC3
Duration : 38mn 50s
Bit rate mode : Constant
Bit rate : 192 Kbps
Channel(s) : 2 channels
Channel positions : Front: L R
Sampling rate : 48.0 KHz
Bit depth : 16 bits
Compression mode : Lossy
Stream size : 53.3 MiB (1%)
Title : Любительский одноголосый закадровый
Language : Russian
Default : Yes
Forced : No
Audio #2
ID : 3
Format : AC-3
Format/Info : Audio Coding 3
Mode extension : CM (complete main)
Format settings, Endianness : Big
Codec ID : A_AC3
Duration : 38mn 50s
Bit rate mode : Constant
Bit rate : 640 Kbps
Channel(s) : 6 channels
Channel positions : Front: L C R, Side: L R, LFE
Sampling rate : 48.0 KHz
Bit depth : 16 bits
Compression mode : Lossy
Stream size : 178 MiB (4%)
Title : Original - BD 3D
Language : English
Default : No
Forced : No
Menu
00:00:00.000 : :1
00:06:29.555 : :2
00:14:49.178 : :3
00:23:41.711 : :4
00:31:26.675 : :5


















   Похожие торренты   Торрент   Размер 
В этой теме нет новых непрочитанных сообщений. Галапагосы с Дэвидом Аттенборо / Galapagos 3D (2013) BDRip 1080p от Ash61 | 3D-Video | halfOU | L1

55 | 18

18.64 ГБ

В этой теме нет новых непрочитанных сообщений. Галапагосы: Очаровательное Путешествие 3D / Galapagos: The Enchanted Voyage 3D [Анаглиф] (1999) DVDRip от StereoFanat

2 | 1

703.24 МБ

В этой теме нет новых непрочитанных сообщений. Царство очарования 3Д / Enchanted Kingdom 3D (2013) BDRip 1080p от Ash61 | 3D-Video | halfOU | Рус.субтитры

118 | 17

12.49 ГБ

В этой теме нет новых непрочитанных сообщений. BBC: Галапагосы / BBC: Galapagos [03 из 03] (2007) BDRip 1080p от ExKinoRay

5 | 3

5.88 ГБ

В этой теме нет новых непрочитанных сообщений. Галапагосские острова / Südamerika: Faszination Galapagos (2012) BDRip 1080p | 3D-Video | halfOU

64 | 14

7.99 ГБ

В этой теме нет новых непрочитанных сообщений. BBC: Галапагосы / BBC: Galapagos [01-03 из 03] (2007) BDRip-AVC от -=HD-NET=-

5 | 2

2.12 ГБ

В этой теме нет новых непрочитанных сообщений. Гог / Gog (1954) BDRip 1080p от Ash61 | 3D-Video | halfOU | P

25 | 7

6.79 ГБ




Вы не можете начинать темы
Вы не можете отвечать на сообщения
Вы не можете редактировать свои сообщения
Вы не можете удалять свои сообщения
Вы не можете добавлять вложения

Перейти:  
Для Мосгорсуда, Роскомнадзора и рекламодателей: mosgorsud-torrent[собачка]yandex.ru
 Вход
ppkBB3cker v.2 © 2008-2014 @ PPK
[ Time : 0.037s | 15 Queries | GZIP : On ]

Торрент трекер RUTOR.IN, Не можете зайти на rutor.org? Какой новый адрес рутор? Какое зеркало рутор? Не работает rutor.org и зеркала? Тогда наш торрент специально для вас. Rutor.in неофициальное зеркало rutor. В случае если у Вас заблокирован rutor или вдруг Вы не можете на него зайти, то Вы без труда сможете скачать бесплатно и без рекламы последние новинки кино, игр, сериалов и прочего у нас, на Rutor.in. Не нужно использовать прокси, чтобы зайти на рутор, достаточно воспользоваться нашим ресурсом. Все новые фильмы, игры, сериалы, книги и музыка за 2013 и 2014 годы через торрент бесплатно. Скачивайте фильмы в хорошем качестве, игры для пк, xbox, playstation без регистрации. У нас вы найдете новые Зарубежные сериалы и Русские сериалы 2013, 2014, 2015 годов. Оставайтесь с нами, качайте любимые фильмы, игры, сериалы, книги и музыку.