img image001 image001 image001 image001 image001 image001 image001 image001 image001 image001 image001 image001 image001 image001 image001

Planets Sun Sun Sun
Статистика раздачи
Автор: Nickolas3434 | Размер: 118.44 МБ | Добавлен: 13 янв 2015
Раздают: 151    Качают: 6
Скачать торрент
Скачать торрент
Описание торрента

СообщениеДобавлено: 13 янв 2015 

Страна: СССР
Производство: Techfilm Studio
Жанр: документальный, короткометражка
Год выпуска: 1940
Продолжительность: 00:19:32
Перевод: Не требуется
Cубтитры: нет
Оригинальная аудиодорожка: русский
Режиссер: Д.И. Яшин
Описание:
Cоветский научно-популярный фильм 1940 года, в котором рассказывается о результатах экспериментов по оживлению организмов, у которых зафиксирована клиническая смерть. Эксперименты были проведены известным физиологом Сергеем Брюхоненко в Воронежском Институте Экспериментальной Физиологии и Терапии…
В фильме изображаются и обсуждаются несколько медицинских экспериментов.
В начале показывается сердце с подключенными к нему четырьмя трубками, бьющееся вне тела. Затем легкое, в котором оксигенация крови осуществляется с помощью мехов. В следующей сцене демонстрируется операция с применением примитивного аппарата искусственного кровообращения (heart-lung machine). Аппарат снабжает голову собаки обогащенной кислородом кровью. Голова реагирует на внешние стимулы.
В последней сцене моделируется клиническая смерть собаки. Через 10 минут после этого запускается аппарат искусственного кровообращения и через некоторое время сердце и легкие начинают работать в нормальном ритме. Показывается, что собака продолжает жить.





Источник: DVB
Качество видео: SATRip
Формат видео: AVI
Виде: 448x336 (4:3), 25 fps, XviD ~ 710 kbps avg, 0.189 bit/pixel
Аудио: 48 kHz, MP3 2.0, 128 kbps
Раздача от:
Общее
Полное имя : Jeksperimenty.po.ozhivleniyu.organizmov.SATRip_[New-team]_by_AVP_Studio.avi
Формат : AVI
Формат/Информация : Audio Video Interleave
Размер файла : 118 Мбайт
Продолжительность : 19 м.
Общий поток : 848 Кбит/сек
Программа кодирования : VirtualDubModRus 1.5.10.2 (build 2542/release)
Библиотека кодирования : VirtualDubMod build 2542/release
Видео
Идентификатор : 0
Формат : MPEG-4 Visual
Профиль формата : Advanced Simple@L5
Параметр BVOP формата : 1
Параметр QPel формата : Нет
Параметр GMC формата : Без точки перехода
Параметр матрицы формата : Выборочная
Идентификатор кодека : XVID
Идентификатор кодека/Подсказка : XviD
Продолжительность : 19 м.
Битрейт : 710 Кбит/сек
Ширина : 448 пикселей
Высота : 336 пикселей
Соотношение сторон : 4:3
Частота кадров : 25,000 кадров/сек
Цветовое пространство : YUV
Субдискретизация насыщенности : 4:2:0
Битовая глубина : 8 бит
Тип развёртки : Прогрессивная
Метод сжатия : С потерями
Бит/(Пиксели*Кадры) : 0.189
Размер потока : 99,3 Мбайт (84%)
Библиотека кодирования : XviD 73
Аудио
Идентификатор : 1
Формат : MPEG Audio
Версия формата : Version 1
Профиль формата : Layer 3
Идентификатор кодека : 55
Идентификатор кодека/Подсказка : MP3
Продолжительность : 19 м.
Вид битрейта : Постоянный
Битрейт : 128 Кбит/сек
Каналы : 2 канала
Частота : 44,1 КГц
Метод сжатия : С потерями
Размер потока : 17,8 Мбайт (15%)
Выравнивание : Разделение по промежуткам
Продолжительность промежутка : 40 мс. (1,01 видеокадр)
Время предзагрузки промежутка : 500 мс.
Библиотека кодирования : LAME3.99r
Настройки программы : -m s -V 4 -q 2 -lowpass 17 -b 128





   Похожие торренты   Торрент   Размер 
В этой теме нет новых непрочитанных сообщений. Эксперименты Лэйн / Serial Experiments Lain TV [1-13 из 13] (1998) TVRip

69 | 21

3.69 ГБ

В этой теме нет новых непрочитанных сообщений. Отрежь Веревку: Эксперименты / Cut the Rope Experiments (2011) iPhone, iPad

19 | 3

35.91 МБ

В этой теме нет новых непрочитанных сообщений. Возвращение (1940) SATRip от New-Team

7 | 12

745.87 МБ

В этой теме нет новых непрочитанных сообщений. Будни (1940) SATRip-AVC от New-Team

19 | 3

1.46 ГБ

В этой теме нет новых непрочитанных сообщений. Будни (1940) SATRip от New-Team

9 | 4

744.94 МБ

В этой теме нет новых непрочитанных сообщений. Бабы (1940) SATRip от New-Team

10 | 6

1.46 ГБ

В этой теме нет новых непрочитанных сообщений. Возвращение (1940) SATRip-AVC от New-Team

12 | 8

1.09 ГБ




Вы не можете начинать темы
Вы не можете отвечать на сообщения
Вы не можете редактировать свои сообщения
Вы не можете удалять свои сообщения
Вы не можете добавлять вложения

Перейти:  
Для Мосгорсуда, Роскомнадзора и рекламодателей: mosgorsud-torrent[собачка]yandex.ru
 Вход
ppkBB3cker v.2 © 2008-2014 @ PPK
[ Time : 0.042s | 16 Queries | GZIP : Off ]

Торрент трекер RUTOR.IN, Не можете зайти на rutor.org? Какой новый адрес рутор? Какое зеркало рутор? Не работает rutor.org и зеркала? Тогда наш торрент специально для вас. Rutor.in неофициальное зеркало rutor. В случае если у Вас заблокирован rutor или вдруг Вы не можете на него зайти, то Вы без труда сможете скачать бесплатно и без рекламы последние новинки кино, игр, сериалов и прочего у нас, на Rutor.in. Не нужно использовать прокси, чтобы зайти на рутор, достаточно воспользоваться нашим ресурсом. Все новые фильмы, игры, сериалы, книги и музыка за 2013 и 2014 годы через торрент бесплатно. Скачивайте фильмы в хорошем качестве, игры для пк, xbox, playstation без регистрации. У нас вы найдете новые Зарубежные сериалы и Русские сериалы 2013, 2014, 2015 годов. Оставайтесь с нами, качайте любимые фильмы, игры, сериалы, книги и музыку.
cron