img image001 image001 image001 image001 image001 image001 image001 image001 image001 image001 image001 image001 image001 image001 image001

Planets Sun Sun Sun
Статистика раздачи
Автор: Nickolas3434 | Размер: 159.2 МБ | Добавлен: 15 янв 2015
Раздают: 45    Качают: 7
Скачать торрент
Скачать торрент
Описание торрента

СообщениеДобавлено: 15 янв 2015 

Страна: СССР
Производство: Центральная студия кинохроники
Жанр: документальный
Год выпуска: 1940
Продолжительность: 00:11:10
Перевод: Не требуется
Cубтитры: нет
Оригинальная аудиодорожка: русский
Режиссер: Николай Соловьёв
Описание:
У тёплого моря - документальный фильм о лагере Артек, СССР...





Качество видео: TVRip-AVC
Формат видео: MKV
Виде: 720->768x576 (4:3), 25 fps, H264 ~ 1800 kbps avg, 0.174 bit/pixel
Аудио: 48 kHz, Dolby Digital AC3 2.0, 192 kbps
Раздача от:
Вид на Аю-Даг с пляжа детского лагеря

«Артек» был основан как лагерь-санаторий для детей, страдающих туберкулёзной интоксикацией, по инициативе председателя Российского общества Красного Креста Зиновия Петровича Соловьёва.
Впервые о создании детского лагеря в Артеке было объявлено 5 ноября 1924 года на празднике московской пионерии. Деятельное участие в подготовке к открытию лагеря приняли Российское Общество Красного Креста (РОКК), Российский коммунистический союз молодёжи (будущий ВЛКСМ) и Центральное Бюро юных пионеров. Руководил подготовкой лично З. П. Соловьёв. Видимо, поэтому в некоторых источниках он указывается, как первый директор «Артека», хотя непосредственное руководство лагерем сразу же после его открытия было поручено Ф. Ф. Шишмарёву.
Лагерь был открыт 16 июня 1925 года. На первую смену приехало 80 пионеров из Москвы, Иваново-Вознесенска и Крыма.
В 1926 году начальником Артека был Марго С. В. В этом году в лагере побывала первая зарубежная делегация — пионеры из Германии.
Первые артековцы жили в брезентовых палатках. Через два года на берегу были поставлены лёгкие фанерные домики. А в 30-е годы, благодаря построенному в верхнем парке зимнему корпусу, «Артек» постепенно был переведён на круглогодичную работу. В 1936 году в «Артеке» прошла смена пионеров-орденоносцев, награждённых правительственными наградами, а в 1937 году лагерь принял детей из охваченной Гражданской войной Испании.
В годы Великой Отечественной войны «Артек» был эвакуирован через Москву в Сталинград, а затем в расположенную в алтайских предгорьях Белокуриху. Там, вместе с ребятами, оказавшимися в начале войны в Крыму, отдыхали и сибирские школьники. Сразу же после освобождения Крыма от оккупантов в апреле 1944 года началось восстановление «Артека». В августе открылась первая послевоенная смена. Через год территория лагеря была увеличена до нынешних размеров.
С начала 60х годов в лагере производилась реконструкция по проекту А. Т. Полянского. К 1969 году в «Артеке» насчитывалось уже 150 зданий, 3 медицинских центра, школа, киностудия «Артекфильм», 3 плавательных бассейна, стадион на 7000 мест и детские площадки для различных нужд.
Пионерская линейка в «Артеке», 1925

В 1930-е годы «Артек» в течение некоторого времени носил имя своего основателя — З. П. Соловьёва. Затем, в 1938 году Совет народных комиссаров СССР и ЦК ВЛКСМ удовлетворили просьбу пионеров присвоить лагерю имя В. М. Молотова, курировавшего «Артек» в правительстве и часто приезжавшего в лагерь. В 1957 году, накануне 40-й годовщины Октябрьской революции, «Артеку» было присвоено имя В. И. Ленина.
В советские времена путёвка в «Артек» считалась престижной наградой как для советских детей, так и для зарубежных.
В пределах одной школы, путёвки удостаивались самые лучшие из пионеров по многочисленным показателям (участие в делах пионерской дружины, поведение, успеваемость и т. п.). В дни расцвета ежегодное количество путёвок в «Артек» составляло 27 000. В период между 1925—1969 гг. «Артек» принял 300 000 детей, включая более 13 000 детей из семнадцати зарубежных стран.
Почётными гостями «Артека» в разные годы были Жан-Бедель Бокасса, Леонид Брежнев, Юрий Гагарин, Индира Ганди, Урхо Кекконен, Никита Хрущёв, Джавахарлал Неру, Отто Шмидт, Лидия Скобликова, Пальмиро Тольятти, Хо Ши Мин, Бенджамин Спок, Михаил Таль, Валентина Терешкова, Лев Яшин. В июле 1983 года «Артек» посетила Саманта Смит.
Похожие, хотя и менее знаменитые, пионерские лагеря были и в других республиках СССР. Второе место по престижности занимал Всероссийский пионерский лагерь «Орлёнок» (Краснодарский край, РСФСР). Далее следовали республиканские лагеря отдыха «Океан» (Приморский край, РСФСР), «Молодая гвардия» (Одесская область, УССР) и «Зубрёнок» (Минская область, БССР).
В 1952 году в ГДР пионерская организация имени Эрнста Тельмана построила пионерский лагерь, похожий на «Артек», получивший название Пионерская республика имени Вильгельма Пика.

Общее
Полное имя : U.teplogo.morya.1940.TVRip-AVC_[New-team]_by_AVP_Studio.mkv
Формат : Matroska
Версия формата : Version 2
Размер файла : 159 Мбайт
Продолжительность : 11 м.
Общий поток : 1994 Кбит/сек
Дата кодирования : UTC 2015-01-13 14:08:44
Программа кодирования : mkvmerge v6.1.0 ('Old Devil') built on Mar 4 2013 09:10:42
Библиотека кодирования : libebml v1.3.0 + libmatroska v1.4.0
Видео
Идентификатор : 1
Формат : AVC
Формат/Информация : Advanced Video Codec
Профиль формата : High@L4.1
Параметр CABAC формата : Да
Параметр ReFrames формата : 6 кадров
Идентификатор кодека : V_MPEG4/ISO/AVC
Продолжительность : 11 м.
Битрейт : 1800 Кбит/сек
Ширина : 720 пикселей
Высота : 576 пикселей
Соотношение сторон : 4:3
Режим частоты кадров : Постоянный
Частота кадров : 25,000 кадров/сек
Стандарт вещания : PAL
Цветовое пространство : YUV
Субдискретизация насыщенности : 4:2:0
Битовая глубина : 8 бит
Тип развёртки : Прогрессивная
Бит/(Пиксели*Кадры) : 0.174
Размер потока : 141 Мбайт (88%)
Библиотека кодирования : x264 core 138 r2356 a1d3d17
Настройки программы : cabac=1 / ref=6 / deblock=1:-3:-3 / analyse=0x3:0x133 / me=umh / subme=10 / psy=1 / psy_rd=1.00:0.05 / mixed_ref=1 / me_range=32 / chroma_me=1 / trellis=2 / 8x8dct=1 / cqm=0 / deadzone=21,11 / fast_pskip=0 / chroma_qp_offset=-3 / threads=6 / lookahead_threads=1 / sliced_threads=0 / nr=0 / decimate=0 / interlaced=0 / bluray_compat=0 / constrained_intra=0 / bframes=8 / b_pyramid=2 / b_adapt=2 / b_bias=0 / direct=3 / weightb=1 / open_gop=0 / weightp=2 / keyint=250 / keyint_min=25 / scenecut=40 / intra_refresh=0 / rc=2pass / mbtree=0 / bitrate=1800 / ratetol=1.0 / qcomp=0.60 / qpmin=0 / qpmax=69 / qpstep=4 / cplxblur=20.0 / qblur=0.5 / ip_ratio=1.40 / pb_ratio=1.30 / aq=1:1.00
Default : Да
Forced : Нет
Аудио
Идентификатор : 2
Формат : AC-3
Формат/Информация : Audio Coding 3
Расширение режима : CM (complete main)
Параметр Endianness формата : Big
Идентификатор кодека : A_AC3
Продолжительность : 11 м.
Вид битрейта : Постоянный
Битрейт : 192 Кбит/сек
Каналы : 2 канала
Расположение каналов : Front: L R
Частота : 48,0 КГц
Битовая глубина : 16 бит
Метод сжатия : С потерями
Размер потока : 15,3 Мбайт (10%)
Default : Да
Forced : Нет





   Похожие торренты   Торрент   Размер 
В этой теме нет новых непрочитанных сообщений. У теплого моря (1940) TVRip от New-Team

30 | 9

177.78 МБ

В этой теме нет новых непрочитанных сообщений. Сборник - Хиты Теплого Моря (2015) MP3

424 | 34

804.91 МБ

В этой теме нет новых непрочитанных сообщений. Линия Маннергейма (1940) TVRip

437 | 10

712.86 МБ

В этой теме нет новых непрочитанных сообщений. Страшные истории Дональда / Donald's Scary Tales (1940) TVRip

2 | 3

692.72 МБ

В этой теме нет новых непрочитанных сообщений. Лето у моря / Два брата и сестра / Geschwister (1975) TVRip | A

35 | 12

643.82 МБ

В этой теме нет новых непрочитанных сообщений. Бабы (1940) SATRip от New-Team

13 | 4

745.31 МБ

В этой теме нет новых непрочитанных сообщений. Возвращение (1940) SATRip-AVC от New-Team

12 | 8

1.09 ГБ




Вы не можете начинать темы
Вы не можете отвечать на сообщения
Вы не можете редактировать свои сообщения
Вы не можете удалять свои сообщения
Вы не можете добавлять вложения

Перейти:  
Для Мосгорсуда, Роскомнадзора и рекламодателей: mosgorsud-torrent[собачка]yandex.ru
 Вход
ppkBB3cker v.2 © 2008-2014 @ PPK
[ Time : 0.085s | 15 Queries | GZIP : Off ]
CGP output time : 0.043s | 5 Queries | GZIP : Off

Торрент трекер RUTOR.IN, Не можете зайти на rutor.org? Какой новый адрес рутор? Какое зеркало рутор? Не работает rutor.org и зеркала? Тогда наш торрент специально для вас. Rutor.in неофициальное зеркало rutor. В случае если у Вас заблокирован rutor или вдруг Вы не можете на него зайти, то Вы без труда сможете скачать бесплатно и без рекламы последние новинки кино, игр, сериалов и прочего у нас, на Rutor.in. Не нужно использовать прокси, чтобы зайти на рутор, достаточно воспользоваться нашим ресурсом. Все новые фильмы, игры, сериалы, книги и музыка за 2013 и 2014 годы через торрент бесплатно. Скачивайте фильмы в хорошем качестве, игры для пк, xbox, playstation без регистрации. У нас вы найдете новые Зарубежные сериалы и Русские сериалы 2013, 2014, 2015 годов. Оставайтесь с нами, качайте любимые фильмы, игры, сериалы, книги и музыку.