img image001 image001 image001 image001 image001 image001 image001 image001 image001 image001 image001 image001 image001 image001 image001 image001

Planets Sun Sun Sun
Статистика раздачи
Автор: Nickolas3434 | Размер: 3.35 ГБ | Добавлен: 20 янв 2015
Раздают: 53    Качают: 43
Скачать торрент
Скачать торрент
Описание торрента

СообщениеДобавлено: 20 янв 2015 

Полярные медведи / Polar Bears: A Summer Odyssey

Русское название: Полярные медведи
Оригинальное название: Polar Bears: A Summer Odyssey
Год выпуска: 2012
Жанр: документальный
Выпущено: Канада
Режиссер: Сара Робертсон
Перевод: Документальный дубляж
Сюжет фильма:
Белый медведь является самым грозным хищником Арктики. Но сейчас он сам оказался под угрозой. После сотен тысяч лет царствования во льдах белый медведь столкнулся с более могучим противником - потеплением климата...

Качество: BDRip 720p
Формат: AVC (библиотека кодирования x.264)
Контейнер (Расширение): MKV
Видео: 1280x720 (16:9), 8308 Кбит/сек, 23,976 кадр/сек, 0,376 Бит/[Пиксели*Кадры]
Аудио №1: русский / AC3 / 5.1 / 48 kHz / 448 kbps / |Документальный дубляж|
Аудио №2: английский / AC3 / 5.1 / 48 kHz / 640 kbps /
Субтитры: русские (Russian)
Продолжительность: 00:50:05
ЦитатаКто-то писал:
Документальный дубляж:
Голос рассказчика - полный дубляж
Интервью - слышна оригинальная речь
Автор рипа: Сообщество:

Format : Matroska
Format version : Version 2
File size : 3.35 GiB
Duration : 50mn 5s
Overall bit rate : 9 587 Kbps
Movie name : Poljarnye medvedi.(2012).BDRip.720p.[denis100]
Encoded date : UTC 2015-01-20 14:02:22
Writing application : mkvmerge v5.8.0 ('No Sleep / Pillow') built on Sep 2 2012 15:37:04
Writing library : libebml v1.2.3 + libmatroska v1.3.0
Video
ID : 1
Format : AVC
Format/Info : Advanced Video Codec
Format profile : High@L4.1
Format settings, CABAC : Yes
Format settings, ReFrames : 4 frames
Codec ID : V_MPEG4/ISO/AVC
Duration : 50mn 5s
Bit rate : 8 309 Kbps
Width : 1 280 pixels
Height : 720 pixels
Display aspect ratio : 16:9
Frame rate : 23.976 fps
Color space : YUV
Chroma subsampling : 4:2:0
Bit depth : 8 bits
Scan type : Progressive
Bits/(Pixel*Frame) : 0.376
Stream size : 2.91 GiB (87%)
Title : Poljarnye medvedi.(2012).BDRip.720p.[denis100]
Writing library : x264 core 142 r2491 24e4fed
Encoding settings : cabac=1 / ref=4 / deblock=1:-2:-2 / analyse=0x3:0x133 / me=umh / subme=11 / psy=1 / psy_rd=1.00:0.10 / mixed_ref=1 / me_range=32 / chroma_me=1 / trellis=2 / 8x8dct=1 / cqm=0 / deadzone=21,11 / fast_pskip=0 / chroma_qp_offset=-3 / threads=6 / lookahead_threads=1 / sliced_threads=0 / nr=0 / decimate=1 / interlaced=0 / bluray_compat=0 / constrained_intra=0 / bframes=10 / b_pyramid=2 / b_adapt=2 / b_bias=0 / direct=3 / weightb=1 / open_gop=0 / weightp=2 / keyint=240 / keyint_min=23 / scenecut=40 / intra_refresh=0 / rc=crf / mbtree=0 / crf=18.0 / qcomp=0.60 / qpmin=0 / qpmax=69 / qpstep=4 / ip_ratio=1.40 / pb_ratio=1.30 / aq=2:1.00
Language : English
Default : Yes
Forced : No
Audio #1
ID : 2
Format : AC-3
Format/Info : Audio Coding 3
Mode extension : CM (complete main)
Codec ID : A_AC3
Duration : 50mn 5s
Bit rate mode : Constant
Bit rate : 448 Kbps
Channel(s) : 6 channels
Channel positions : Front: L C R, Side: L R, LFE
Sampling rate : 48.0 KHz
Bit depth : 16 bits
Compression mode : Lossy
Stream size : 161 MiB (5%)
Title : Документальный дубляж
Language : Russian
Default : Yes
Forced : No
Audio #2
ID : 3
Format : AC-3
Format/Info : Audio Coding 3
Mode extension : CM (complete main)
Codec ID : A_AC3
Duration : 50mn 5s
Bit rate mode : Constant
Bit rate : 640 Kbps
Channel(s) : 6 channels
Channel positions : Front: L C R, Side: L R, LFE
Sampling rate : 48.0 KHz
Bit depth : 16 bits
Compression mode : Lossy
Stream size : 229 MiB (7%)
Title : English
Language : English
Default : No
Forced : No
Text
ID : 4
Format : UTF-8
Codec ID : S_TEXT/UTF8
Codec ID/Info : UTF-8 Plain Text
Title : Russian
Language : Russian
Default : No
Forced : No



   Похожие торренты   Торрент   Размер 
В этой теме нет новых непрочитанных сообщений. Полярные медведи / Polar Bears: A Summer Odyssey (2012) BDRip-AVC от ExKinoRay

4 | 2

1.36 ГБ

В этой теме нет новых непрочитанных сообщений. Полярные медведи / Polar Bears: A Summer Odyssey (2012) HDRip | P1

4 | 2

747.47 МБ

В этой теме нет новых непрочитанных сообщений. Полярные медведи / Polar Bears: A Summer Odyssey (2012) Blu-Ray Remux 1080p

3 | 5

8.55 ГБ

В этой теме нет новых непрочитанных сообщений. BBC: Живой мир. Полярные медведи и гризли / Polar bears & grizzlies - bears on top of the world (2007) DVDRip от ExKinoRay

7 | 4

702.22 МБ

В этой теме нет новых непрочитанных сообщений. Полярные медведи: Белый медведь / Polar Bears: Ice Bear (2012) Blu-Ray 1080p | D

0 | 0

17.39 ГБ

В этой теме нет новых непрочитанных сообщений. Полярные медведи: Белый медведь / Polar Bears: Ice Bear (2012) BDRemux 1080p | D

6 | 4

7.83 ГБ

В этой теме нет новых непрочитанных сообщений. Медведи / Bears (2014) BDRip 720p

3175 | 375

3.64 ГБ




Вы не можете начинать темы
Вы не можете отвечать на сообщения
Вы не можете редактировать свои сообщения
Вы не можете удалять свои сообщения
Вы не можете добавлять вложения

Перейти:  
 Вход
ppkBB3cker v.2 © 2008-2014 @ PPK
[ Time : 0.054s | 16 Queries | GZIP : Off ]

cron