img image001 image001 image001 image001 image001 image001 image001 image001 image001 image001 image001 image001 image001 image001 image001

Planets Sun Sun Sun
Статистика раздачи
Автор: Nickolas3434 | Размер: 10.24 ГБ | Добавлен: 28 янв 2015
Раздают: 40    Качают: 4
Скачать торрент
Скачать торрент
Описание торрента

СообщениеДобавлено: 28 янв 2015 

Откровения пирамид / La revelation des pyramides

«The investigation that changes the world»

Русское название: Откровения пирамид
Оригинальное название: La revelation des pyramides
Год выпуска: 2009
Жанр: документальный
Выпущено: Франция
Режиссер: Патрис Пуйар
В ролях: Жан-Пьер Адам , Гийеметт Андре , Арлэн Эндрюс , Mallku Aribalo , Jean-Louis Basdevant , Дастин Карр , Pier Luigi Copat , Брайан Кокс , Joseph Davidovits , Thierry de Champris , Gilles Dormion , Кристофер Данн
Перевод: Профессиональный многоголосый

Сюжет фильма:
Многие века тайны Великих Пирамид в Гизе будоражат умы людей. Сотни тысяч туристов со всего мира каждый год отправляются в Египет, чтобы увидеть Великого Сфинкса и Пирамиды Хеопса, Хефрена и Микерина. Путь создателей фильма пролег от Китая до Перу, от Египта до Мексики и от Ближнего Востока до острова Пасхи - по древнейшим, красивейшим и наиболее таинственным местам нашей планеты. Создатели этого документального блокбастера предлагают совершенно новую и непривычную для приверженцев традиционного академического подхода точку зрения на то, что являют собой Великие Пирамиды на самом деле.

Качество: BDRip 1080p (исходник Blu-ray)
Формат: AVC (библиотека кодирования x.264)
Контейнер (Расширение): MKV
Видео: 1918x1036 (1.851), 13098 Кбит/сек, 25 кадр/сек, 0,264 Бит/[Пиксели*Кадры]
Аудио №1: русский / AC3 / 5 / 48 kHz / 384 kbps / |Профессиональный многоголосый|
Аудио №2: английский / AC3 / 5.1 / 48 kHz / 640 kbps /
Навигация по главам(Чаптеры): есть
Продолжительность: 01:41:46
Автор рипа: Сообщество:

Format : Matroska
Format version : Version 2
File size : 10.2 GiB
Duration : 1h 41mn
Overall bit rate : 14.4 Mbps
Movie name : Otkrovenija piramid.(2012).BDRip.1080p.[denis100]
Encoded date : UTC 2015-01-26 09:37:26
Writing application : mkvmerge v5.8.0 ('No Sleep / Pillow') built on Sep 2 2012 15:37:04
Writing library : libebml v1.2.3 + libmatroska v1.3.0
Video
ID : 1
Format : AVC
Format/Info : Advanced Video Codec
Format profile : High@L4.1
Format settings, CABAC : Yes
Format settings, ReFrames : 4 frames
Codec ID : V_MPEG4/ISO/AVC
Duration : 1h 41mn
Bit rate : 13.1 Mbps
Width : 1 918 pixels
Height : 1 036 pixels
Display aspect ratio : 1.851
Frame rate : 25.000 fps
Color space : YUV
Chroma subsampling : 4:2:0
Bit depth : 8 bits
Scan type : Progressive
Bits/(Pixel*Frame) : 0.264
Stream size : 9.31 GiB (91%)
Title : Otkrovenija piramid.(2012).BDRip.1080p.[denis100]
Writing library : x264 core 142 r2491 24e4fed
Encoding settings : cabac=1 / ref=4 / deblock=1:-3:-3 / analyse=0x3:0x133 / me=umh / subme=11 / psy=1 / psy_rd=1.00:0.10 / mixed_ref=1 / me_range=48 / chroma_me=1 / trellis=2 / 8x8dct=1 / cqm=0 / deadzone=21,11 / fast_pskip=0 / chroma_qp_offset=-3 / threads=6 / lookahead_threads=1 / sliced_threads=0 / nr=0 / decimate=1 / interlaced=0 / bluray_compat=0 / constrained_intra=0 / bframes=8 / b_pyramid=2 / b_adapt=2 / b_bias=0 / direct=3 / weightb=1 / open_gop=0 / weightp=2 / keyint=250 / keyint_min=24 / scenecut=40 / intra_refresh=0 / rc=crf / mbtree=0 / crf=18.0 / qcomp=0.60 / qpmin=0 / qpmax=69 / qpstep=4 / ip_ratio=1.40 / pb_ratio=1.30 / aq=1:0.90
Language : English
Default : Yes
Forced : No
Audio #1
ID : 2
Format : AC-3
Format/Info : Audio Coding 3
Mode extension : CM (complete main)
Codec ID : A_AC3
Duration : 1h 41mn
Bit rate mode : Constant
Bit rate : 384 Kbps
Channel(s) : 5 channels
Channel positions : Front: L C R, Side: L R
Sampling rate : 48.0 KHz
Bit depth : 16 bits
Compression mode : Lossy
Stream size : 280 MiB (3%)
Title : профессиональный (многоголосый, закадровый)
Language : Russian
Default : Yes
Forced : No
Audio #2
ID : 3
Format : AC-3
Format/Info : Audio Coding 3
Mode extension : CM (complete main)
Codec ID : A_AC3
Duration : 1h 41mn
Bit rate mode : Constant
Bit rate : 640 Kbps
Channel(s) : 6 channels
Channel positions : Front: L C R, Side: L R, LFE
Sampling rate : 48.0 KHz
Bit depth : 16 bits
Compression mode : Lossy
Stream size : 466 MiB (4%)
Title : English
Language : English
Default : No
Forced : No
Menu
00:00:00.000 : en:Chapter 01
00:08:38.079 : en:Chapter 02
00:18:47.680 : en:Chapter 03
00:27:42.880 : en:Chapter 04
00:39:46.240 : en:Chapter 05
00:48:54.400 : en:Chapter 06
00:56:52.480 : en:Chapter 07
01:08:37.120 : en:Chapter 08
01:16:45.760 : en:Chapter 09
01:23:44.320 : en:Chapter 10
01:32:08.800 : en:Chapter 11
01:39:04.000 : en:Chapter 12
x264 [info]: frame I:1024 Avg QP:16.63 size:218060
x264 [info]: frame P:30826 Avg QP:17.19 size:109515
x264 [info]: frame B:120800 Avg QP:20.03 size: 54763




   Похожие торренты   Торрент   Размер 
В этой теме нет новых непрочитанных сообщений. Откровения пирамид / The Revelation of the Pyramids / La revelation des pyramides (2010) BDRip 720p

7 | 3

3.57 ГБ

В этой теме нет новых непрочитанных сообщений. Откровения пирамид / The Revelation of the Pyramids / La revelation des pyramides (2010) BDRip-AVC от ExKinoRay

115 | 3

2.23 ГБ

В этой теме нет новых непрочитанных сообщений. Откровения пирамид / The Revelation of the Pyramids / La revelation des pyramides (2010) BDRip от HELLYWOOD

126 | 12

1.46 ГБ

В этой теме нет новых непрочитанных сообщений. Откровения пирамид / La révélation des pyramides (2010) BDRip 720p от GYN

13 | 3

5.58 ГБ

В этой теме нет новых непрочитанных сообщений. Откровения пирамид / La revelation des pyramides (2010) DVDRip от Kino@rena

12 | 2

701.89 МБ

В этой теме нет новых непрочитанных сообщений. Путь откровения: Начало конца / Revelation Road: The Beginning of the End (2013) BDRip | L2

95 | 10

1.26 ГБ

В этой теме нет новых непрочитанных сообщений. Путь откровения 3 / The Black Rider: Revelation Road (2014) DVDRip | L1

399 | 18

1.46 ГБ




Вы не можете начинать темы
Вы не можете отвечать на сообщения
Вы не можете редактировать свои сообщения
Вы не можете удалять свои сообщения
Вы не можете добавлять вложения

Перейти:  
Для Мосгорсуда, Роскомнадзора и рекламодателей: mosgorsud-torrent[собачка]yandex.ru
 Вход
ppkBB3cker v.2 © 2008-2014 @ PPK
[ Time : 2.720s | 17 Queries | GZIP : On ]

Торрент трекер RUTOR.IN, Не можете зайти на rutor.org? Какой новый адрес рутор? Какое зеркало рутор? Не работает rutor.org и зеркала? Тогда наш торрент специально для вас. Rutor.in неофициальное зеркало rutor. В случае если у Вас заблокирован rutor или вдруг Вы не можете на него зайти, то Вы без труда сможете скачать бесплатно и без рекламы последние новинки кино, игр, сериалов и прочего у нас, на Rutor.in. Не нужно использовать прокси, чтобы зайти на рутор, достаточно воспользоваться нашим ресурсом. Все новые фильмы, игры, сериалы, книги и музыка за 2013 и 2014 годы через торрент бесплатно. Скачивайте фильмы в хорошем качестве, игры для пк, xbox, playstation без регистрации. У нас вы найдете новые Зарубежные сериалы и Русские сериалы 2013, 2014, 2015 годов. Оставайтесь с нами, качайте любимые фильмы, игры, сериалы, книги и музыку.