img image001 image001 image001 image001 image001 image001 image001 image001 image001 image001 image001 image001 image001 image001 image001

Planets Sun Sun Sun
Статистика раздачи
Автор: Nickolas3434 | Размер: 10.66 ГБ | Добавлен: 25 фев 2015
Раздают: 319    Качают: 32
Скачать торрент
Скачать торрент
Описание торрента

СообщениеДобавлено: 25 фев 2015 




Вызов бездне 3D
Deepsea Challenge 3D



#77
Год выпуска: 2014
Страна: США (National Geographic Entertainment, Disruptive LA, Earthship Productions, A Wight Expedition Film, Beyond Productions)
Жанр: Документальный
Продолжительность: 1:31:05
Перевод: Профессиональный дублированный - Line
Режиссеры: Джон Бруно, Рэй Кен, Эндрю Уайт / John Bruno, Ray Quint, Andrew Wight
Продюсеры: Джеймс Кэмерон, Бретт Попплуэлл


В фильме снимались: Джеймс Кэмерон, Френк Лолито (Giuseppe Buono), Лачлан Вудс (Jacques Piccard), Пол Генри (Don Walsh)


Описание: На Земле есть несколько мест, которых не коснулась история развития человечества. В полной темноте и безмолвии они хранят величайшие тайны Земли. Недоступные, как далекие планеты, они полны научных открытий. Одно из таких мест — Марианская впадина.
Джеймс Кэмерон — самый известный и успешный режиссер в мире, еще и страстный исследователь океанов, ведомый мечтой всей его жизни, быть первым человеком, ныряющим в одиночку на дно неприступной и самой глубокой из всех известных на Земле Марианской впадины.
Вызов бездне — захватывающая история, разворачивающаяся перед нами в 3D, об экспедиции исторического масштаба, которую можно сравнить разве что с первыми человеческими шагами по Луне. Вызов бездне загипнотизирует зрителя любого возраста красотой новых форм жизни, трепетом от настоящих открытий. А самое главное, что все это здесь, на их родной планете.



Премьера: 8 августа 2014 (15 января 2015)




Качество: BDRip (by Ash61)
Контейнер: MKV
Формат 3D: Half OverUnder / Вертикальная анаморфная стереопара
Порядок ракурсов: левый ракурс первый
Видео кодек: x264
Аудио кодек: AC3


Видео: AVC / 23,976 fps / 1920х1080p / 15.8 Mbps
Аудио:
#1 - Русский / AC3 / 48 KHz / 2 ch / 192 Kbps (Дубляж - Line) (реально стерео)
#2 - Английский / AC3 / 48 KHz / 5.1 ch / 448 Kbps (Original - BD 3D)
Субтитры: Внешние (SRT ANSI) English Full
General
Unique ID : 191365970140274789260613818464509079512 (0x8FF7BEC6EF04E74EB8D8455F0453AFD8)
Complete name : E:DeepseaChallenge(2014)3D-halfOU(Ash61)LineDeepseaChallenge(2014)3D-halfOU(Ash61)Line.mkv
Format : Matroska
Format version : Version 2
File size : 10.7 GiB
Duration : 1h 31mn
Overall bit rate : 16.8 Mbps
Movie name : Вызов бездне 3D / Deepsea Challenge 3D (2014) 3D
Encoded date : UTC 2015-02-21 23:50:01
Writing application : mkvmerge v5.8.0 ('No Sleep / Pillow') built on Sep 2 2012 15:37:04
Writing library : libebml v1.2.3 + libmatroska v1.3.0
Video
ID : 1
Format : AVC
Format/Info : Advanced Video Codec
Format profile : High@L4.1
Format settings, CABAC : Yes
Format settings, ReFrames : 4 frames
Codec ID : V_MPEG4/ISO/AVC
Duration : 1h 31mn
Bit rate : 15.8 Mbps
Width : 1 920 pixels
Height : 1 080 pixels
Display aspect ratio : 16:9
Frame rate mode : Constant
Frame rate : 23.976 fps
Color space : YUV
Chroma subsampling : 4:2:0
Bit depth : 8 bits
Scan type : Progressive
Bits/(Pixel*Frame) : 0.318
Stream size : 10.0 GiB (94%)
Title : BDRip by Ash61
Writing library : x264 core 138 r2358 9e941d1
Encoding settings : cabac=1 / ref=4 / deblock=1:-3:-3 / analyse=0x3:0x113 / me=umh / subme=10 / psy=1 / psy_rd=1.00:0.15 / mixed_ref=1 / me_range=32 / chroma_me=1 / trellis=2 / 8x8dct=1 / cqm=0 / deadzone=21,11 / fast_pskip=1 / chroma_qp_offset=-3 / threads=12 / lookahead_threads=3 / sliced_threads=0 / nr=0 / decimate=1 / interlaced=0 / bluray_compat=0 / constrained_intra=0 / bframes=10 / b_pyramid=2 / b_adapt=2 / b_bias=0 / direct=3 / weightb=1 / open_gop=0 / weightp=2 / keyint=250 / keyint_min=23 / scenecut=40 / intra_refresh=0 / rc_lookahead=60 / rc=crf / mbtree=1 / crf=17.5 / qcomp=0.70 / qpmin=0 / qpmax=69 / qpstep=4 / vbv_maxrate=40000 / vbv_bufsize=30000 / crf_max=0.0 / nal_hrd=none / frame-packing=4 / ip_ratio=1.40 / aq=1:0.70
Language : English
Default : Yes
Forced : No
Audio #1
ID : 2
Format : AC-3
Format/Info : Audio Coding 3
Mode extension : CM (complete main)
Format settings, Endianness : Big
Codec ID : A_AC3
Duration : 1h 31mn
Bit rate mode : Constant
Bit rate : 192 Kbps
Channel(s) : 2 channels
Channel positions : Front: L R
Sampling rate : 48.0 KHz
Bit depth : 16 bits
Compression mode : Lossy
Stream size : 125 MiB (1%)
Title : Дубляж - Line
Language : Russian
Default : Yes
Forced : No
Audio #2
ID : 3
Format : AC-3
Format/Info : Audio Coding 3
Mode extension : CM (complete main)
Format settings, Endianness : Big
Codec ID : A_AC3
Duration : 1h 31mn
Bit rate mode : Constant
Bit rate : 448 Kbps
Channel(s) : 6 channels
Channel positions : Front: L C R, Side: L R, LFE
Sampling rate : 48.0 KHz
Bit depth : 16 bits
Compression mode : Lossy
Stream size : 292 MiB (3%)
Title : Original - BD 3D
Language : English
Default : No
Forced : No
Menu
00:00:00.000 : :1. The Beginning
00:07:06.968 : :2. The Pressure of Time
00:14:26.324 : :3. The Titanic
00:20:56.589 : :4. Meeting Jim
00:28:06.977 : :5. Dive
00:35:22.329 : :6. Purpose and Meaning
00:42:03.438 : :7. The Lander
00:49:38.976 : :8. A True Understanding
00:56:56.997 : :9. Dive 8
01:04:44.422 : :10. Inspiring The Dream
01:13:38.205 : :11. Touchdown
01:24:04.414 : :12. End Credits





















   Похожие торренты   Торрент   Размер 
В этой теме нет новых непрочитанных сообщений. Вызов бездне 3D / Deepsea Challenge 3D (2014) BDRip 1080p | 3D-Video | HSBS | P

509 | 151

6.66 ГБ

В этой теме нет новых непрочитанных сообщений. Вызов бездне / Deepsea Challenge (2014) BDRip 1080p | P

396 | 53

6.84 ГБ

В этой теме нет новых непрочитанных сообщений. Вызов бездне 3D / Deepsea Challenge 3D (2014) BDRip 720p

511 | 18

4.89 ГБ

В этой теме нет новых непрочитанных сообщений. Вызов бездне / Deepsea Challenge (2014) HDRip | P

1328 | 100

1.37 ГБ

В этой теме нет новых непрочитанных сообщений. Вызов бездне 3D / Deepsea Challenge 3D (2014) HDRip от UNIONGANG | Р

0 | 45

1.37 ГБ

В этой теме нет новых непрочитанных сообщений. Геракл / Hercules (2014) BDRip 1080p от Ash61 | 3D-Video | halfOU | Чистый звук

977 | 181

8.15 ГБ

В этой теме нет новых непрочитанных сообщений. Помпеи / Pompeii (2014) BDRip 1080p от Ash61 | 3D-Video | halfOU | Чистый звук

828 | 156

8.61 ГБ




Вы не можете начинать темы
Вы не можете отвечать на сообщения
Вы не можете редактировать свои сообщения
Вы не можете удалять свои сообщения
Вы не можете добавлять вложения

Перейти:  
Для Мосгорсуда, Роскомнадзора и рекламодателей: mosgorsud-torrent[собачка]yandex.ru
 Вход
ppkBB3cker v.2 © 2008-2014 @ PPK
[ Time : 0.564s | 17 Queries | GZIP : On ]

Торрент трекер RUTOR.IN, Не можете зайти на rutor.org? Какой новый адрес рутор? Какое зеркало рутор? Не работает rutor.org и зеркала? Тогда наш торрент специально для вас. Rutor.in неофициальное зеркало rutor. В случае если у Вас заблокирован rutor или вдруг Вы не можете на него зайти, то Вы без труда сможете скачать бесплатно и без рекламы последние новинки кино, игр, сериалов и прочего у нас, на Rutor.in. Не нужно использовать прокси, чтобы зайти на рутор, достаточно воспользоваться нашим ресурсом. Все новые фильмы, игры, сериалы, книги и музыка за 2013 и 2014 годы через торрент бесплатно. Скачивайте фильмы в хорошем качестве, игры для пк, xbox, playstation без регистрации. У нас вы найдете новые Зарубежные сериалы и Русские сериалы 2013, 2014, 2015 годов. Оставайтесь с нами, качайте любимые фильмы, игры, сериалы, книги и музыку.