img image001 image001 image001 image001 image001 image001 image001 image001 image001 image001 image001 image001 image001 image001 image001

Planets Sun Sun Sun
Статистика раздачи
Автор: Nickolas3434 | Размер: 2.66 ГБ | Добавлен: 26 фев 2015
Раздают: 179    Качают: 2
Скачать торрент
Скачать торрент
Описание торрента

СообщениеДобавлено: 26 фев 2015 

Русское название: Дельфины и киты
Оригинальное название: Dolphins and Whales: Tribes of the Ocean
Год выпуска: 2008
Жанр: документальный, короткометражка, приключения
Выпущено: Великобритания, Багамы
Режиссер: Жан-Жак Мантелло
В ролях: Дэрил Ханна , Шарлотта Рэмплинг
Сюжет фильма:
Этот великолепный и зрелищный фильм, снятый на коралловых рифах Багамских островов, перенесет вас в эти удивительные места: вы узнаете много интересных фактов о диких дельфинах и китах, способных к не простому общению и взаимодействию. Фильм ярко показывает жизнь этих изящных, величественных, но все же, подвергаемых опасности морских существ.

Качество: BDRip 720p (исходник Blu-ray)
Формат: AVC (библиотека кодирования x.264)
Контейнер (Расширение): MKV
Видео: 1280x720 (16:9), 7703 Кбит/сек, 23,976 кадр/сек, 0,349 Бит/[Пиксели*Кадры]
Аудио №1: русский / AC3 / 5.1 / 48 kHz / 448 kbps / |Дублированный|
Аудио №2: английский / AC3 / 5.1 / 48 kHz / 640 kbps /
Субтитры: русские (Forced)
Перевод: Дублированный

Продолжительность: 00:42:26
Автор рипа: Сообщество:

Format : Matroska
Format version : Version 2
File size : 2.66 GiB
Duration : 42mn 26s
Overall bit rate : 8 970 Kbps
Movie name : Del'finy i kity.(2008).BDRip.720p.[denis100]
Encoded date : UTC 2015-02-25 09:20:26
Writing application : mkvmerge v5.8.0 ('No Sleep / Pillow') built on Sep 2 2012 15:37:04
Writing library : libebml v1.2.3 + libmatroska v1.3.0
Video
ID : 1
Format : AVC
Format/Info : Advanced Video Codec
Format profile : High@L4.1
Format settings, CABAC : Yes
Format settings, ReFrames : 9 frames
Codec ID : V_MPEG4/ISO/AVC
Duration : 42mn 26s
Bit rate : 7 704 Kbps
Width : 1 280 pixels
Height : 720 pixels
Display aspect ratio : 16:9
Frame rate : 23.976 fps
Color space : YUV
Chroma subsampling : 4:2:0
Bit depth : 8 bits
Scan type : Progressive
Bits/(Pixel*Frame) : 0.349
Stream size : 2.28 GiB (86%)
Title : Del'finy i kity.(2008).BDRip.720p.[denis100]
Writing library : x264 core 144 r2525 40bb568
Encoding settings : cabac=1 / ref=9 / deblock=1:-3:-3 / analyse=0x3:0x133 / me=umh / subme=11 / psy=1 / psy_rd=1.00:0.05 / mixed_ref=1 / me_range=32 / chroma_me=1 / trellis=2 / 8x8dct=1 / cqm=0 / deadzone=21,11 / fast_pskip=0 / chroma_qp_offset=-3 / threads=6 / lookahead_threads=1 / sliced_threads=0 / nr=0 / decimate=1 / interlaced=0 / bluray_compat=0 / constrained_intra=0 / bframes=8 / b_pyramid=2 / b_adapt=2 / b_bias=0 / direct=3 / weightb=1 / open_gop=0 / weightp=2 / keyint=240 / keyint_min=23 / scenecut=40 / intra_refresh=0 / rc=crf / mbtree=0 / crf=18.0 / qcomp=0.60 / qpmin=0 / qpmax=69 / qpstep=4 / ip_ratio=1.40 / pb_ratio=1.30 / aq=1:1.00
Language : English
Default : Yes
Forced : No
Audio #1
ID : 2
Format : AC-3
Format/Info : Audio Coding 3
Mode extension : CM (complete main)
Codec ID : A_AC3
Duration : 42mn 26s
Bit rate mode : Constant
Bit rate : 448 Kbps
Channel(s) : 6 channels
Channel positions : Front: L C R, Side: L R, LFE
Sampling rate : 48.0 KHz
Bit depth : 16 bits
Compression mode : Lossy
Stream size : 136 MiB (5%)
Title : Дублированный
Language : Russian
Default : Yes
Forced : No
Audio #2
ID : 3
Format : AC-3
Format/Info : Audio Coding 3
Mode extension : CM (complete main)
Codec ID : A_AC3
Duration : 42mn 26s
Bit rate mode : Constant
Bit rate : 640 Kbps
Channel(s) : 6 channels
Channel positions : Front: L C R, Side: L R, LFE
Sampling rate : 48.0 KHz
Bit depth : 16 bits
Compression mode : Lossy
Stream size : 194 MiB (7%)
Title : English
Language : English
Default : No
Forced : No
Text
ID : 4
Format : UTF-8
Codec ID : S_TEXT/UTF8
Codec ID/Info : UTF-8 Plain Text
Title : Forced
Language : Russian
Default : Yes
Forced : No



   Похожие торренты   Торрент   Размер 
В этой теме нет новых непрочитанных сообщений. Дельфины и киты 3D / Dolphins and Whales: Tribes of the Ocean 3D (2008) BDRip AVC от Киномагия

0 | 1

697.29 МБ

В этой теме нет новых непрочитанных сообщений. Дельфины и киты 3D / Dolphins and Whales: Tribes of the Ocean 3D (2008) BDRip 1080p | 3D-Video | D

19 | 5

4.33 ГБ

В этой теме нет новых непрочитанных сообщений. Дельфины и киты / Dolphins and Whales: Tribes of the Ocean (2008) DVDRip (BDRip) от ExKinoRay

8 | 6

699.13 МБ

В этой теме нет новых непрочитанных сообщений. Дельфины и киты 2D / Dolphins and Whales: Tribes of the Ocean 2D (2008) HDRip от AndrewWhite

1 | 2

699.29 МБ

В этой теме нет новых непрочитанных сообщений. Дельфины и киты / Dolphins and Whales (2008) BDRip 720p

2 | 3

1.61 ГБ

В этой теме нет новых непрочитанных сообщений. Дельфины в глубоком синем океане / Dolphins in the deep blue ocean (2009) BDRip

1 | 4

1.45 ГБ

В этой теме нет новых непрочитанных сообщений. Дельфины в океанской синеве / Dolphins In The Deep Blue Ocean (2009) BDRip от HQ-ViDEO

45 | 8

1.45 ГБ




Вы не можете начинать темы
Вы не можете отвечать на сообщения
Вы не можете редактировать свои сообщения
Вы не можете удалять свои сообщения
Вы не можете добавлять вложения

Перейти:  
Для Мосгорсуда, Роскомнадзора и рекламодателей: mosgorsud-torrent[собачка]yandex.ru
 Вход
ppkBB3cker v.2 © 2008-2014 @ PPK
[ Time : 0.041s | 16 Queries | GZIP : Off ]

cron