img image001 image001 image001 image001 image001 image001 image001 image001 image001 image001 image001 image001 image001 image001 image001

Planets Sun Sun Sun
Статистика раздачи
Автор: Nickolas3434 | Размер: 8.05 ГБ | Добавлен: 03 мар 2015
Раздают: 20    Качают: 4
Скачать торрент
Скачать торрент
Описание торрента

СообщениеДобавлено: 03 мар 2015 




Императорские пингвины Пен-И и Сом-И / Слёзы Антарктики
Tears of the Antarctic / Emperor Penguins Peng-yi and Som-yi



#77
Год выпуска: 2012
Страна: Южная Корея (MBC, Mountain Pictures, Studio Raon)
Жанр: Документальный
Продолжительность: 1:19:08

Озвучка: Любительская одноголосая закадровая - Sawgod (перевод любительский - Ash61)



Описание: Фильм является результатом 500-дневного путешествия съёмочной группы, с целью съёмок в жесточайших условиях Антарктиды. В фильме сконцентрировано внимание на одном сезоне из нелёгкой жизни двух семейств Императорских пингвинов, а также показаны некоторые другие обитатели Антарктики.



Доп. инфо: За бескорыстное озвучивание по просьбе, большое спасибо Sawgod!!!
Русские субтитры ещё раз подкорректированы уже после озвучивания.



Премьера (мир): 8 августа 2012





Качество: BDRip (by Ash61) (с Корейского трансфера)
Контейнер: MKV
Формат 3D: Half OverUnder / Вертикальная анаморфная стереопара
Порядок ракурсов: левый ракурс первый
Видео кодек: x264
Аудио кодек: AC3



Видео: AVC / 23,976 fps / 1920х1080p / 13.6 Mbps

Аудио: Русский / AC3 / 48 KHz / 5.1 ch / 640 Kbps (VO - Sawgod) (сведение дороги - Ash61)

Субтитры (внешние SRT UTF-8):
#1 - Русские Полные (перевод любительский Ash61 с китайского трансфера)
#2 - English Full (Chinese Transfer)
#3 - English Full (Korean Transfer)

General
Unique ID : 197375090836208645495247295401665504725 (0x947D0F4D33BC8BF4BC855A0F0E5825D5)
Complete name : E:TearsOfTheAntarctic(2012)3D-halfOU(Ash61)VO-SawgodTearsOfTheAntarctic(2012)3D-halfOU(Ash61)VO-Sawgod.mkv
Format : Matroska
Format version : Version 2
File size : 8.05 GiB
Duration : 1h 19mn
Overall bit rate : 14.6 Mbps
Movie name : Слёзы Антарктики (Пенги и Соми) / Tears of the Antarctic (Paengi and Somie) (2012) 3D
Encoded date : UTC 2015-01-20 18:50:01
Writing application : mkvmerge v5.8.0 ('No Sleep / Pillow') built on Sep 2 2012 15:37:04
Writing library : libebml v1.2.3 + libmatroska v1.3.0

Video
ID : 1
Format : AVC
Format/Info : Advanced Video Codec
Format profile : High@L4.1
Format settings, CABAC : Yes
Format settings, ReFrames : 4 frames
Codec ID : V_MPEG4/ISO/AVC
Duration : 1h 19mn
Bit rate : 13.6 Mbps
Width : 1 920 pixels
Height : 1 080 pixels
Display aspect ratio : 16:9
Frame rate mode : Constant
Frame rate : 23.976 fps
Color space : YUV
Chroma subsampling : 4:2:0
Bit depth : 8 bits
Scan type : Progressive
Bits/(Pixel*Frame) : 0.274
Stream size : 7.53 GiB (94%)
Title : BDRip by Ash61 (BD 3D Kor)
Writing library : x264 core 129 r2245 bc13772
Encoding settings : cabac=1 / ref=4 / deblock=1:-3:-3 / analyse=0x3:0x113 / me=umh / subme=9 / psy=1 / psy_rd=1.00:0.15 / mixed_ref=1 / me_range=32 / chroma_me=1 / trellis=2 / 8x8dct=1 / cqm=0 / deadzone=21,11 / fast_pskip=1 / chroma_qp_offset=-3 / threads=12 / lookahead_threads=2 / sliced_threads=0 / nr=0 / decimate=1 / interlaced=0 / bluray_compat=0 / constrained_intra=0 / bframes=8 / b_pyramid=2 / b_adapt=2 / b_bias=0 / direct=3 / weightb=1 / open_gop=0 / weightp=2 / keyint=250 / keyint_min=23 / scenecut=40 / intra_refresh=0 / rc_lookahead=60 / rc=crf / mbtree=1 / crf=17.0 / qcomp=0.70 / qpmin=0 / qpmax=69 / qpstep=4 / vbv_maxrate=40000 / vbv_bufsize=30000 / crf_max=0.0 / nal_hrd=none / frame-packing=4 / ip_ratio=1.40 / aq=1:0.70
Language : Korean
Default : Yes
Forced : No

Audio
ID : 2
Format : AC-3
Format/Info : Audio Coding 3
Mode extension : CM (complete main)
Format settings, Endianness : Big
Codec ID : A_AC3
Duration : 1h 19mn
Bit rate mode : Constant
Bit rate : 640 Kbps
Channel(s) : 6 channels
Channel positions : Front: L C R, Side: L R, LFE
Sampling rate : 48.0 KHz
Bit depth : 16 bits
Compression mode : Lossy
Stream size : 362 MiB (4%)
Title : Любительский одноголосый закадровый - Sawgod (любительский перевод и сведение - Ash61)
Language : Russian
Default : Yes
Forced : No

Menu
00:00:00.000 : :1
00:06:49.868 : :2
00:21:08.726 : :3
00:33:51.112 : :4
00:49:29.466 : :5
01:00:48.603 : :6
01:09:20.990 : :7
01:16:24.538 : :8


















   Похожие торренты   Торрент   Размер 
В этой теме нет новых непрочитанных сообщений. Императорские пингвины Пен-И и Сом-И / Слёзы Антарктики / Tears of the Antarctic (2012) BDRemux 2D/3D 1080p от Ash61 | 3D-Video | L1

4 | 2

20.62 ГБ

В этой теме нет новых непрочитанных сообщений. Слёзы Антарктики / Пенги и Сомми / Tears of the Antarctic / Pengi and Sommi (2012) BDRip 1080p от Ash61 | 3D-Video | halfOU | Субтитры

1 | 18

8.05 ГБ

В этой теме нет новых непрочитанных сообщений. Пингвины Мадагаскара / Penguins of Madagascar (2014) BDRip 1080p от Ash61 | 3D-Video | halfOU

251 | 18

6.98 ГБ

В этой теме нет новых непрочитанных сообщений. Камасутра 3D / Kamasutra 3D (2012) BDRip 1080p от Ash61 | 3D-Video | halfOU

600 | 49

3.58 ГБ

В этой теме нет новых непрочитанных сообщений. Гильотина / Гильотины / Xue di zi / The Guillotines (2012) BDRip 1080p от Ash61 | 3D-Video | halfOU | L2

32 | 73

15.5 ГБ

В этой теме нет новых непрочитанных сообщений. 009 король: Киборг / 009 Re: Cyborg (2012) BDRip 1080p от Ash61 | 3D-Video | halfOU | L

66 | 25

4.15 ГБ

В этой теме нет новых непрочитанных сообщений. Пир драконов / Dragons Feast (2012) BDRip 1080p от Ash61 | 3D-Video | halfOU | P1

59 | 62

6.42 ГБ




Вы не можете начинать темы
Вы не можете отвечать на сообщения
Вы не можете редактировать свои сообщения
Вы не можете удалять свои сообщения
Вы не можете добавлять вложения

Перейти:  
Для Мосгорсуда, Роскомнадзора и рекламодателей: mosgorsud-torrent[собачка]yandex.ru
 Вход
ppkBB3cker v.2 © 2008-2014 @ PPK
[ Time : 0.081s | 15 Queries | GZIP : Off ]

Торрент трекер RUTOR.IN, Не можете зайти на rutor.org? Какой новый адрес рутор? Какое зеркало рутор? Не работает rutor.org и зеркала? Тогда наш торрент специально для вас. Rutor.in неофициальное зеркало rutor. В случае если у Вас заблокирован rutor или вдруг Вы не можете на него зайти, то Вы без труда сможете скачать бесплатно и без рекламы последние новинки кино, игр, сериалов и прочего у нас, на Rutor.in. Не нужно использовать прокси, чтобы зайти на рутор, достаточно воспользоваться нашим ресурсом. Все новые фильмы, игры, сериалы, книги и музыка за 2013 и 2014 годы через торрент бесплатно. Скачивайте фильмы в хорошем качестве, игры для пк, xbox, playstation без регистрации. У нас вы найдете новые Зарубежные сериалы и Русские сериалы 2013, 2014, 2015 годов. Оставайтесь с нами, качайте любимые фильмы, игры, сериалы, книги и музыку.