img image001 image001 image001 image001 image001 image001 image001 image001 image001 image001 image001 image001 image001 image001 image001

Planets Sun Sun Sun
Статистика раздачи
Автор: Nickolas3434 | Размер: 4.36 ГБ | Добавлен: 07 мар 2015
Раздают: 81    Качают: 6
Скачать торрент
Скачать торрент
Описание торрента

СообщениеДобавлено: 07 мар 2015 

Название: Дикая Флорида
Оригинальное название: Wild Florida
Год выпуска: 2013
Жанр: Документальный, познавательный, природа, флора, фауна
Выпущено: США, Produced By 2C Media, INC. For National Geographic Channels
Режиссер: Вирджиния Сомма

О фильме: За пределами парка "Магическое королевство" Диснейленда находится дикая часть Флориды, где захватывающая красота ландшафта объединяется с живой природой, и здесь, между лабиринтами кипарисовых болот, людными пляжами и коралловыми островами развязываются безжалостные драмы. Две истории проведут нас в эту скрытую дикую местность, где нашему взгляду откроются поразительные войска грозных хищников, опасные захватчики и спасающиеся от них ловкачи — в их попытке жить и благоденствовать в этом великолепном, но иногда жестоком земном раю. Трое молодых аллигаторов пытаются пережить свой первый год в болотистой местности, где правят их старые и огромные собратья. Чтобы заработать звание короля трясины, для начала им необходимо избежать целой толпы убийц: ядовитых змей, ненасытных хищных рыб и даже представителей своего же вида. Ещё один дикий край раскинулся посреди беспокойных берегов и сильного течения Гольфстрима. С помощью великолепной киносъёмки передача "Дикая Флорида" за два часа познакомит вас с удивительными и харизматичными героями, которые покажут вам, что такое "дикая жизнь" солнечного штата Флориды.

Содержание:
01. Край аллигаторов / Gator Country
02. Берег аллигаторов / Croc Coast
Качество: BDRip 720p
Формат: AVC (библиотека кодирования x.264)
Контейнер (Расширение): MKV
Видео: 1280x720 (16:9), ~6451 Кбит/сек, 25 кадр/сек, 0,280 Бит/[Пиксели*Кадры]
Аудио №1: русский / AC3 / 2.0 / 48 kHz / 192 kbps / |Документальный дубляж (студия "Велес")|
Аудио №2: английский / AC3 / 5.1 / 48 kHz / 448 kbps /
Навигация по главам(Чаптеры): есть
Продолжительность: 2 x ~ 00:44:00

Автор рипа: Сообщество:


ЦитатаКто-то писал:
Документальный дубляж (студия "Велес"):
Голос рассказчика - полный дубляж
Интервью - слышна оригинальная речь

Format : Matroska
Format version : Version 2
File size : 2.18 GiB
Duration : 43mn 59s
Overall bit rate : 7 093 Kbps
Movie name : Dikaja Florida.Episode 1.(2013).BDRip.720p.[denis100]
Encoded date : UTC 2015-03-06 12:22:10
Writing application : mkvmerge v5.8.0 ('No Sleep / Pillow') built on Sep 2 2012 15:37:04
Writing library : libebml v1.2.3 + libmatroska v1.3.0

Video
ID : 1
Format : AVC
Format/Info : Advanced Video Codec
Format profile : High@L4.1
Format settings, CABAC : Yes
Format settings, ReFrames : 9 frames
Codec ID : V_MPEG4/ISO/AVC
Duration : 43mn 59s
Bit rate : 6 451 Kbps
Width : 1 280 pixels
Height : 720 pixels
Display aspect ratio : 16:9
Frame rate : 25.000 fps
Color space : YUV
Chroma subsampling : 4:2:0
Bit depth : 8 bits
Scan type : Progressive
Bits/(Pixel*Frame) : 0.280
Stream size : 1.94 GiB (89%)
Title : Dikaja Florida.Episode 1.(2013).BDRip.720p.[denis100]
Writing library : x264 core 144 r2525 40bb568
Encoding settings : cabac=1 / ref=9 / deblock=1:-3:-3 / analyse=0x3:0x133 / me=umh / subme=11 / psy=1 / psy_rd=1.00:0.00 / mixed_ref=1 / me_range=32 / chroma_me=1 / trellis=2 / 8x8dct=1 / cqm=0 / deadzone=21,11 / fast_pskip=0 / chroma_qp_offset=-2 / threads=6 / lookahead_threads=1 / sliced_threads=0 / nr=0 / decimate=1 / interlaced=0 / bluray_compat=0 / constrained_intra=0 / bframes=12 / b_pyramid=2 / b_adapt=2 / b_bias=0 / direct=3 / weightb=1 / open_gop=0 / weightp=2 / keyint=250 / keyint_min=25 / scenecut=40 / intra_refresh=0 / rc=2pass / mbtree=0 / bitrate=6451 / ratetol=1.0 / qcomp=0.60 / qpmin=0 / qpmax=69 / qpstep=4 / cplxblur=20.0 / qblur=0.5 / ip_ratio=1.40 / pb_ratio=1.30 / aq=1:1.00
Language : English
Default : Yes
Forced : No

Audio #1
ID : 2
Format : AC-3
Format/Info : Audio Coding 3
Mode extension : CM (complete main)
Codec ID : A_AC3
Duration : 43mn 59s
Bit rate mode : Constant
Bit rate : 192 Kbps
Channel(s) : 2 channels
Channel positions : Front: L R
Sampling rate : 48.0 KHz
Bit depth : 16 bits
Compression mode : Lossy
Stream size : 60.4 MiB (3%)
Title : Документальный дубляж (студия "Велес")
Language : Russian
Default : Yes
Forced : No

Audio #2
ID : 3
Format : AC-3
Format/Info : Audio Coding 3
Mode extension : CM (complete main)
Codec ID : A_AC3
Duration : 43mn 59s
Bit rate mode : Constant
Bit rate : 448 Kbps
Channel(s) : 6 channels
Channel positions : Front: L C R, Side: L R, LFE
Sampling rate : 48.0 KHz
Bit depth : 16 bits
Compression mode : Lossy
Stream size : 141 MiB (6%)
Title : English
Language : English
Default : No
Forced : No

Menu
00:00:00.000 : ru:Chapter 01
00:03:32.399 : ru:Chapter 02
00:07:53.040 : ru:Chapter 03
00:11:13.079 : ru:Chapter 04
00:15:06.040 : ru:Chapter 05
00:19:30.880 : ru:Chapter 06
00:23:30.119 : ru:Chapter 07
00:26:43.840 : ru:Chapter 08
00:30:49.680 : ru:Chapter 09
00:33:57.560 : ru:Chapter 10
00:37:15.840 : ru:Chapter 11
00:40:17.319 : ru:Chapter 12
Format : Matroska
Format version : Version 2
File size : 2.18 GiB
Duration : 44mn 2s
Overall bit rate : 7 092 Kbps
Movie name : Dikaja Florida.Episode 2.(2013).BDRip.720p.[denis100]
Encoded date : UTC 2015-03-06 12:33:43
Writing application : mkvmerge v5.8.0 ('No Sleep / Pillow') built on Sep 2 2012 15:37:04
Writing library : libebml v1.2.3 + libmatroska v1.3.0

Video
ID : 1
Format : AVC
Format/Info : Advanced Video Codec
Format profile : High@L4.1
Format settings, CABAC : Yes
Format settings, ReFrames : 9 frames
Codec ID : V_MPEG4/ISO/AVC
Duration : 44mn 2s
Bit rate : 6 451 Kbps
Width : 1 280 pixels
Height : 720 pixels
Display aspect ratio : 16:9
Frame rate : 25.000 fps
Color space : YUV
Chroma subsampling : 4:2:0
Bit depth : 8 bits
Scan type : Progressive
Bits/(Pixel*Frame) : 0.280
Stream size : 1.94 GiB (89%)
Title : Dikaja Florida.Episode 2.(2013).BDRip.720p.[denis100]
Writing library : x264 core 144 r2525 40bb568
Encoding settings : cabac=1 / ref=9 / deblock=1:-3:-3 / analyse=0x3:0x133 / me=umh / subme=11 / psy=1 / psy_rd=1.00:0.00 / mixed_ref=1 / me_range=32 / chroma_me=1 / trellis=2 / 8x8dct=1 / cqm=0 / deadzone=21,11 / fast_pskip=0 / chroma_qp_offset=-2 / threads=6 / lookahead_threads=1 / sliced_threads=0 / nr=0 / decimate=1 / interlaced=0 / bluray_compat=0 / constrained_intra=0 / bframes=12 / b_pyramid=2 / b_adapt=2 / b_bias=0 / direct=3 / weightb=1 / open_gop=0 / weightp=2 / keyint=250 / keyint_min=25 / scenecut=40 / intra_refresh=0 / rc=2pass / mbtree=0 / bitrate=6451 / ratetol=1.0 / qcomp=0.60 / qpmin=0 / qpmax=69 / qpstep=4 / cplxblur=20.0 / qblur=0.5 / ip_ratio=1.40 / pb_ratio=1.30 / aq=1:1.00
Language : English
Default : Yes
Forced : No

Audio #1
ID : 2
Format : AC-3
Format/Info : Audio Coding 3
Mode extension : CM (complete main)
Codec ID : A_AC3
Duration : 44mn 2s
Bit rate mode : Constant
Bit rate : 192 Kbps
Channel(s) : 2 channels
Channel positions : Front: L R
Sampling rate : 48.0 KHz
Bit depth : 16 bits
Compression mode : Lossy
Stream size : 60.5 MiB (3%)
Title : Документальный дубляж (студия "Велес")
Language : Russian
Default : Yes
Forced : No

Audio #2
ID : 3
Format : AC-3
Format/Info : Audio Coding 3
Mode extension : CM (complete main)
Codec ID : A_AC3
Duration : 44mn 2s
Bit rate mode : Constant
Bit rate : 448 Kbps
Channel(s) : 6 channels
Channel positions : Front: L C R, Side: L R, LFE
Sampling rate : 48.0 KHz
Bit depth : 16 bits
Compression mode : Lossy
Stream size : 141 MiB (6%)
Title : English
Language : English
Default : No
Forced : No

Menu
00:00:00.000 : ru:Chapter 01
00:03:41.039 : ru:Chapter 02
00:07:39.680 : ru:Chapter 03
00:10:44.319 : ru:Chapter 04
00:14:44.640 : ru:Chapter 05
00:19:40.479 : ru:Chapter 06
00:22:54.199 : ru:Chapter 07
00:26:58.600 : ru:Chapter 08
00:29:57.279 : ru:Chapter 09
00:33:03.800 : ru:Chapter 10
00:36:21.479 : ru:Chapter 11
00:39:57.640 : ru:Chapter 12



   Похожие торренты   Торрент   Размер 
В этой теме нет новых непрочитанных сообщений. National Geographic: Дикая Флорида / Florida Untamed [01-02 из 02] (2013) HDTVRip от HitWay | D

35 | 8

1.05 ГБ

В этой теме нет новых непрочитанных сообщений. National Geographic: Дикая Флорида / Florida Untamed [01 из 02] (2013) HDTVRip от HitWay | D

35 | 3

539 МБ

В этой теме нет новых непрочитанных сообщений. National Geographic: Дикая природа России. Заполярье / National Geographic: Wild Russia. Arctic [03 из 06] (2009) HDTVRip от ExKinoRay

4 | 2

702.01 МБ

В этой теме нет новых непрочитанных сообщений. National Geographic: Дикая природа России. Камчатка / National Geographic: Wild Russia. Kamchatka [02 из 06] (2009) HDTVRip от ExKinoRay

19 | 1

702.41 МБ

В этой теме нет новых непрочитанных сообщений. National Geographic: Дикая природа России. Сибирь / National Geographic: Wild Russia. Siberia [01 из 06] (2009) HDTVRip от ExKinoRay

45 | 5

699.41 МБ

В этой теме нет новых непрочитанных сообщений. National Geographic. Дикая природа Амазонки / National Geographic. Wild Amazon [2 из 2] (2010) HDTVRip от ExKinoRay

24 | 6

1.37 ГБ

В этой теме нет новых непрочитанных сообщений. National Geographic. Дикая Австралия / National Geographic. Wild Australia [Серии 1, 3, 4 из 4] (2014) HDTVRip от HitWay | D

85 | 24

1.58 ГБ




Вы не можете начинать темы
Вы не можете отвечать на сообщения
Вы не можете редактировать свои сообщения
Вы не можете удалять свои сообщения
Вы не можете добавлять вложения

Перейти:  
Для Мосгорсуда, Роскомнадзора и рекламодателей: mosgorsud-torrent[собачка]yandex.ru
 Вход
ppkBB3cker v.2 © 2008-2014 @ PPK
[ Time : 0.032s | 15 Queries | GZIP : Off ]

Торрент трекер RUTOR.IN, Не можете зайти на rutor.org? Какой новый адрес рутор? Какое зеркало рутор? Не работает rutor.org и зеркала? Тогда наш торрент специально для вас. Rutor.in неофициальное зеркало rutor. В случае если у Вас заблокирован rutor или вдруг Вы не можете на него зайти, то Вы без труда сможете скачать бесплатно и без рекламы последние новинки кино, игр, сериалов и прочего у нас, на Rutor.in. Не нужно использовать прокси, чтобы зайти на рутор, достаточно воспользоваться нашим ресурсом. Все новые фильмы, игры, сериалы, книги и музыка за 2013 и 2014 годы через торрент бесплатно. Скачивайте фильмы в хорошем качестве, игры для пк, xbox, playstation без регистрации. У нас вы найдете новые Зарубежные сериалы и Русские сериалы 2013, 2014, 2015 годов. Оставайтесь с нами, качайте любимые фильмы, игры, сериалы, книги и музыку.