img image001 image001 image001 image001 image001 image001 image001 image001 image001 image001 image001 image001 image001 image001 image001

Planets Sun Sun Sun
Статистика раздачи
Автор: Nickolas3434 | Размер: 1.46 ГБ | Добавлен: 17 мар 2015
Раздают: 668    Качают: 19
Скачать торрент
Скачать торрент
Описание торрента

СообщениеДобавлено: 17 мар 2015 

Страна: Россия
Производство: ВГТРК
Жанр: документальный, реконструкция событий
Год выпуска: 2015
Продолжительность: 02:24:43
Перевод: Не требуется
Cубтитры: нет
Оригинальная аудиодорожка: русский
Режиссер: Сергей Краус
В создании фильма учавствовали:
Андрей Кондрашев, Ольга денина, Сергей Комаров, Екатерина Фурсова, Евгений Лопаткин, Антон Черкасов, Сергей Дьяченко, Александр Блошкин, Ирина Виноградова, Дмитрий Ткачев, Андрей Макаренко...
Описание:
Полнометражная лента была задумана, чтобы сохранить для истории каждый значимый эпизод событий, происходивших в Крыму весной 2014 года. Съемки продолжались 8 месяцев. Они проходили в Севастополе, Форосе, Симферополе, Керчи, Ялте, Бахчисарае, в Феодосии, Джанкое, Алуште и еще в десятке населенных пунктов Крыма. В фильме не только реконструированы события 2014 года. В нем с некоторых событий снимается покров тайны. Например, с того, как легитимный президент Украины Виктор Янукович обратился к России с просьбой спасти ему жизнь. Это была настоящая спец операция, о которой до этого не говорилось: за несколько километров до засады с пулеметами Виктор Янукович был тайно эвакуирован. Владимир Путин рассказывает в фильме "Крым. Путь на Родину" и о том, как без кровопролития были разоружены 193 украинские воинские части. И еще одна тайна: как удалось запереть в бухтах корабли украинских ВМС...





Источник: TV-трансляция
Качество видео: TVRip
Формат видео: AVI
Видео: 720x400 (16:9), 25 fps, XviD ~ 1240 kbps avg, 0.172 bit/pixel
Аудио: 48 kHz, Dolby Digital AC3 2.0, 192 kbps
Раздача от:
Общее
Полное имя : Krym.Put.na.Rodinu.2015.TVRip_[New-team]_by_AVP_Studio.avi
Формат : AVI
Формат/Информация : Audio Video Interleave
Размер файла : 1,46 Гбайт
Продолжительность : 2 ч. 24 м.
Общий поток : 1442 Кбит/сек
Программа кодирования : VirtualDubModRus 1.5.10.2 (build 2542/release)
Библиотека кодирования : VirtualDubMod build 2542/release
Видео
Идентификатор : 0
Формат : MPEG-4 Visual
Профиль формата : Advanced Simple@L5
Параметр BVOP формата : 1
Параметр QPel формата : Нет
Параметр GMC формата : Без точки перехода
Параметр матрицы формата : Выборочная
Идентификатор кодека : XVID
Идентификатор кодека/Подсказка : XviD
Продолжительность : 2 ч. 24 м.
Битрейт : 1240 Кбит/сек
Ширина : 720 пикселей
Высота : 400 пикселей
Соотношение сторон : 16:9
Частота кадров : 25,000 кадров/сек
Цветовое пространство : YUV
Субдискретизация насыщенности : 4:2:0
Битовая глубина : 8 бит
Тип развёртки : Прогрессивная
Метод сжатия : С потерями
Бит/(Пиксели*Кадры) : 0.172
Размер потока : 1,25 Гбайт (86%)
Библиотека кодирования : XviD 73
Аудио
Идентификатор : 1
Формат : AC-3
Формат/Информация : Audio Coding 3
Расширение режима : CM (complete main)
Параметр Endianness формата : Big
Идентификатор кодека : 2000
Продолжительность : 2 ч. 24 м.
Вид битрейта : Постоянный
Битрейт : 192 Кбит/сек
Каналы : 2 канала
Расположение каналов : Front: L R
Частота : 48,0 КГц
Битовая глубина : 16 бит
Метод сжатия : С потерями
Размер потока : 199 Мбайт (13%)
Выравнивание : Разделение по промежуткам
Продолжительность промежутка : 40 мс. (1,00 видеокадр)
Время предзагрузки промежутка : 500 мс





   Похожие торренты   Торрент   Размер 
В этой теме нет новых непрочитанных сообщений. Крым. Путь на Родину (2015) TVRip-AVC от New-Team

442 | 16

1.45 ГБ

В этой теме нет новых непрочитанных сообщений. Крым. Путь на Родину (2015) HDTVRip-AVC от New-Team

698 | 41

2.18 ГБ

В этой теме нет новых непрочитанных сообщений. Крым. Путь на Родину (2015) HDTVRip от New-Team

1379 | 80

1.46 ГБ

В этой теме нет новых непрочитанных сообщений. Крым. Путь на Родину (2015) DVB от -=HD-NET=-

2061 | 22

2.66 ГБ

В этой теме нет новых непрочитанных сообщений. Крым. Путь на Родину. (2015) IPTVRip

1815 | 60

1.07 ГБ

В этой теме нет новых непрочитанных сообщений. Она защищает Родину (1943) DVDRip от New-Team

9 | 3

742.46 МБ

В этой теме нет новых непрочитанных сообщений. Она защищает Родину (1943) DVDRip-AVC от New-Team

65 | 2

744.25 МБ




Вы не можете начинать темы
Вы не можете отвечать на сообщения
Вы не можете редактировать свои сообщения
Вы не можете удалять свои сообщения
Вы не можете добавлять вложения

Перейти:  
Для Мосгорсуда, Роскомнадзора и рекламодателей: mosgorsud-torrent[собачка]yandex.ru
 Вход
ppkBB3cker v.2 © 2008-2014 @ PPK
[ Time : 0.041s | 17 Queries | GZIP : Off ]

cron