img image001 image001 image001 image001 image001 image001 image001 image001 image001 image001 image001 image001 image001 image001 image001

Planets Sun Sun Sun
Статистика раздачи
Автор: Nickolas3434 | Размер: 2.18 ГБ | Добавлен: 19 мар 2015
Раздают: 713    Качают: 42
Скачать торрент
Скачать торрент
Описание торрента

СообщениеДобавлено: 19 мар 2015 

Страна: Россия
Производство: ВГТРК
Жанр: документальный, реконструкция событий
Год выпуска: 2015
Продолжительность: 02:24:43
Перевод: Не требуется
Cубтитры: нет
Оригинальная аудиодорожка: русский
Режиссер: Сергей Краус
В создании фильма учавствовали:
Андрей Кондрашев, Ольга денина, Сергей Комаров, Екатерина Фурсова, Евгений Лопаткин, Антон Черкасов, Сергей Дьяченко, Александр Блошкин, Ирина Виноградова, Дмитрий Ткачев, Андрей Макаренко...
Описание:
Полнометражная лента была задумана, чтобы сохранить для истории каждый значимый эпизод событий, происходивших в Крыму весной 2014 года. Съемки продолжались 8 месяцев. Они проходили в Севастополе, Форосе, Симферополе, Керчи, Ялте, Бахчисарае, в Феодосии, Джанкое, Алуште и еще в десятке населенных пунктов Крыма. В фильме не только реконструированы события 2014 года. В нем с некоторых событий снимается покров тайны. Например, с того, как легитимный президент Украины Виктор Янукович обратился к России с просьбой спасти ему жизнь. Это была настоящая спец операция, о которой до этого не говорилось: за несколько километров до засады с пулеметами Виктор Янукович был тайно эвакуирован. Владимир Путин рассказывает в фильме "Крым. Путь на Родину" и о том, как без кровопролития были разоружены 193 украинские воинские части. И еще одна тайна: как удалось запереть в бухтах корабли украинских ВМС...





Источник: HDTV 1080i
Качество видео: HDTVRip-AVC
Формат видео: MKV
Видео: 1024x576 (16:9), 25 fps, H264 ~ 2030 kbps avg, 0.138 bit/pixel
Аудио: 48 kHz, Dolby Digital AC3 2.0, 192 kbps
Раздача от:
Общее
Полное имя : Krym.Put.na.Rodinu.2015.HDTVRip-AVC_[New-team]_by_AVP_Studio.mkv
Формат : Matroska
Версия формата : Version 2
Размер файла : 2,18 Гбайт
Продолжительность : 2 ч. 24 м.
Общий поток : 2160 Кбит/сек
Дата кодирования : UTC 2015-03-17 00:58:28
Программа кодирования : mkvmerge v6.1.0 ('Old Devil') built on Mar 4 2013 09:10:42
Библиотека кодирования : libebml v1.3.0 + libmatroska v1.4.0
Видео
Идентификатор : 1
Формат : AVC
Формат/Информация : Advanced Video Codec
Профиль формата : High@L4.1
Параметр CABAC формата : Да
Параметр ReFrames формата : 8 кадров
Идентификатор кодека : V_MPEG4/ISO/AVC
Продолжительность : 2 ч. 24 м.
Битрейт : 2030 Кбит/сек
Ширина : 1024 пикселя
Высота : 576 пикселей
Соотношение сторон : 16:9
Режим частоты кадров : Постоянный
Частота кадров : 25,000 кадров/сек
Цветовое пространство : YUV
Субдискретизация насыщенности : 4:2:0
Битовая глубина : 8 бит
Тип развёртки : Прогрессивная
Бит/(Пиксели*Кадры) : 0.138
Размер потока : 2,01 Гбайт (92%)
Библиотека кодирования : x264 core 138 r2356 a1d3d17
Настройки программы : cabac=1 / ref=8 / deblock=1:-3:-2 / analyse=0x3:0x113 / me=umh / subme=10 / psy=1 / psy_rd=1.00:0.05 / mixed_ref=1 / me_range=32 / chroma_me=1 / trellis=2 / 8x8dct=1 / cqm=0 / deadzone=21,11 / fast_pskip=1 / chroma_qp_offset=-3 / threads=6 / lookahead_threads=1 / sliced_threads=0 / nr=0 / decimate=0 / interlaced=0 / bluray_compat=0 / constrained_intra=0 / bframes=8 / b_pyramid=2 / b_adapt=2 / b_bias=0 / direct=3 / weightb=1 / open_gop=0 / weightp=2 / keyint=250 / keyint_min=25 / scenecut=40 / intra_refresh=0 / rc_lookahead=40 / rc=2pass / mbtree=1 / bitrate=2030 / ratetol=1.0 / qcomp=0.60 / qpmin=0 / qpmax=69 / qpstep=4 / cplxblur=20.0 / qblur=0.5 / ip_ratio=1.40 / aq=1:1.00
Default : Да
Forced : Нет
Аудио
Идентификатор : 2
Формат : AC-3
Формат/Информация : Audio Coding 3
Расширение режима : CM (complete main)
Параметр Endianness формата : Big
Идентификатор кодека : A_AC3
Продолжительность : 2 ч. 24 м.
Вид битрейта : Постоянный
Битрейт : 128 Кбит/сек
Каналы : 2 канала
Расположение каналов : Front: L R
Частота : 48,0 КГц
Битовая глубина : 16 бит
Метод сжатия : С потерями
Задержка видео : 19 мс.
Размер потока : 133 Мбайт (6%)
Default : Нет
Forced : Нет





   Похожие торренты   Торрент   Размер 
В этой теме нет новых непрочитанных сообщений. Крым. Путь на Родину (2015) HDTVRip от New-Team

1384 | 83

1.46 ГБ

В этой теме нет новых непрочитанных сообщений. Крым. Путь на Родину (2015) TVRip-AVC от New-Team

442 | 16

1.45 ГБ

В этой теме нет новых непрочитанных сообщений. Крым. Путь на Родину (2015) TVRip от New-Team

668 | 19

1.46 ГБ

В этой теме нет новых непрочитанных сообщений. Крым. Путь на Родину (2015) DVB от -=HD-NET=-

2061 | 22

2.66 ГБ

В этой теме нет новых непрочитанных сообщений. Крым. Путь на Родину. (2015) IPTVRip

1815 | 60

1.07 ГБ

В этой теме нет новых непрочитанных сообщений. Она защищает Родину (1943) DVDRip от New-Team

8 | 4

742.46 МБ

В этой теме нет новых непрочитанных сообщений. Она защищает Родину (1943) DVDRip-AVC от New-Team

69 | 4

744.25 МБ




Вы не можете начинать темы
Вы не можете отвечать на сообщения
Вы не можете редактировать свои сообщения
Вы не можете удалять свои сообщения
Вы не можете добавлять вложения

Перейти:  
Для Мосгорсуда, Роскомнадзора и рекламодателей: mosgorsud-torrent[собачка]yandex.ru
 Вход
ppkBB3cker v.2 © 2008-2014 @ PPK
[ Time : 1.709s | 16 Queries | GZIP : Off ]

Торрент трекер RUTOR.IN, Не можете зайти на rutor.org? Какой новый адрес рутор? Какое зеркало рутор? Не работает rutor.org и зеркала? Тогда наш торрент специально для вас. Rutor.in неофициальное зеркало rutor. В случае если у Вас заблокирован rutor или вдруг Вы не можете на него зайти, то Вы без труда сможете скачать бесплатно и без рекламы последние новинки кино, игр, сериалов и прочего у нас, на Rutor.in. Не нужно использовать прокси, чтобы зайти на рутор, достаточно воспользоваться нашим ресурсом. Все новые фильмы, игры, сериалы, книги и музыка за 2013 и 2014 годы через торрент бесплатно. Скачивайте фильмы в хорошем качестве, игры для пк, xbox, playstation без регистрации. У нас вы найдете новые Зарубежные сериалы и Русские сериалы 2013, 2014, 2015 годов. Оставайтесь с нами, качайте любимые фильмы, игры, сериалы, книги и музыку.