img image001 image001 image001 image001 image001 image001 image001 image001 image001 image001 image001 image001 image001 image001 image001

Planets Sun Sun Sun
Статистика раздачи
Автор: Nickolas3434 | Размер: 9.96 ГБ | Добавлен: 20 мар 2015
Раздают: 221    Качают: 28
Скачать торрент
Скачать торрент
Описание торрента

СообщениеДобавлено: 20 мар 2015 

Скрытые миры 3Д: Пещеры мёртвых
Verborgene Welten 3D: Die Hoehlen der Toten
Hidden Worlds 3D: Caves of the Dead



Год выпуска: 2013
Страна: Германия (New KSM, Blue Note)
Жанр: Документальный
Продолжительность: 01:33:36
Перевод: Любительский одноголосый закадровый - Сергей Бельчиков aka ZERZIA (субтитры - Кирилл Батюк)
Режиссер: Norbert Vander
Продюсеры: Peter Baaten, Benjamin Krause
Композитор: Burkhard Maria Fincke


В фильме снимались: Florian Huber, Uli Kunz, Christian Howe, Robert Marc Lehmann, Robert Schmittner, Colin Solman (рассказчик на английском)...


Описание: Погружение с дайверами в подводную систему пещер полуострова Юкатан (Мексика), где хорошо сохранились останки жизнедеятельности майя и даже останки динозавров. Также в фильме показаны постановочные сцены жизни майя.


Доп. инфо: За любезно предоставленную русскую дорогу и субтитры большое спасибо spaaa! За альтруизм спасибо озвучившему и переводчику!
Смотреть до конца - после финальных титров ещё кое-что показано...





Качество: BDRip (by Ash61)
Контейнер: MKV
Формат 3D: Half OverUnder / Вертикальная анаморфная стереопара
Порядок ракурсов: левый ракурс первый


Видео: AVC / 23,976 fps / 1920х1080p / 13.6 Mbps
Аудио:
#1 - Русский / AC3 / 48 KHz / 5.1 ch / 640 Kbps (VO - Сергей Бельчиков aka ZERZIA)
#2 - Английский / AC3 / 48 KHz / 5.1 ch / 640 Kbps (BD 3D)
Субтитры: (внешние SRT UTF-8):
#1 - Русские Полные
#2 - English Full
General
Unique ID : 211614096320944062017667128614859652466 (0x9F3364794CDDE8C79E27FA3284993D72)
Complete name : E:HiddenWorlds.CavesOfTheDead(2013)3D-halfOU(Ash61)VOHiddenWorlds.CavesOfTheDead(2013)3D-halfOU(Ash61)VO.mkv
Format : Matroska
Format version : Version 2
File size : 9.96 GiB
Duration : 1h 33mn
Overall bit rate : 15.2 Mbps
Movie name : Скрытые миры: Пещеры мёртвых / Hidden Worlds 3D: Caves of the Dead (2013) 3D
Encoded date : UTC 2015-03-17 19:59:22
Writing application : mkvmerge v5.8.0 ('No Sleep / Pillow') built on Sep 2 2012 15:37:04
Writing library : libebml v1.2.3 + libmatroska v1.3.0
Video
ID : 1
Format : AVC
Format/Info : Advanced Video Codec
Format profile : High@L4.1
Format settings, CABAC : Yes
Format settings, ReFrames : 4 frames
Codec ID : V_MPEG4/ISO/AVC
Duration : 1h 33mn
Bit rate : 13.6 Mbps
Width : 1 920 pixels
Height : 1 080 pixels
Display aspect ratio : 16:9
Frame rate mode : Constant
Frame rate : 23.976 fps
Color space : YUV
Chroma subsampling : 4:2:0
Bit depth : 8 bits
Scan type : Progressive
Bits/(Pixel*Frame) : 0.274
Stream size : 8.92 GiB (90%)
Title : BDRip by Ash61
Writing library : x264 core 129 r2245 bc13772
Encoding settings : cabac=1 / ref=4 / deblock=1:-3:-3 / analyse=0x3:0x113 / me=umh / subme=10 / psy=1 / psy_rd=1.00:0.15 / mixed_ref=1 / me_range=32 / chroma_me=1 / trellis=2 / 8x8dct=1 / cqm=0 / deadzone=21,11 / fast_pskip=1 / chroma_qp_offset=-3 / threads=12 / lookahead_threads=2 / sliced_threads=0 / nr=0 / decimate=1 / interlaced=0 / bluray_compat=0 / constrained_intra=0 / bframes=9 / b_pyramid=2 / b_adapt=2 / b_bias=0 / direct=3 / weightb=1 / open_gop=0 / weightp=2 / keyint=250 / keyint_min=23 / scenecut=40 / intra_refresh=0 / rc_lookahead=60 / rc=crf / mbtree=1 / crf=17.5 / qcomp=0.70 / qpmin=0 / qpmax=69 / qpstep=4 / vbv_maxrate=40000 / vbv_bufsize=30000 / crf_max=0.0 / nal_hrd=none / frame-packing=4 / ip_ratio=1.40 / aq=1:0.70
Language : German
Default : Yes
Forced : No
Audio #1
ID : 2
Format : AC-3
Format/Info : Audio Coding 3
Mode extension : CM (complete main)
Format settings, Endianness : Big
Codec ID : A_AC3
Duration : 1h 33mn
Bit rate mode : Constant
Bit rate : 640 Kbps
Channel(s) : 6 channels
Channel positions : Front: L C R, Side: L R, LFE
Sampling rate : 48.0 KHz
Bit depth : 16 bits
Compression mode : Lossy
Stream size : 428 MiB (4%)
Title : Одноголосый закадровый - Сергей Бельчиков aka ZERZIA
Language : Russian
Default : Yes
Forced : No
Audio #2
ID : 3
Format : AC-3
Format/Info : Audio Coding 3
Mode extension : CM (complete main)
Format settings, Endianness : Big
Codec ID : A_AC3
Duration : 1h 33mn
Bit rate mode : Constant
Bit rate : 640 Kbps
Channel(s) : 6 channels
Channel positions : Front: L C R, Side: L R, LFE
Sampling rate : 48.0 KHz
Bit depth : 16 bits
Compression mode : Lossy
Stream size : 428 MiB (4%)
Language : English
Default : No
Forced : No
Menu
00:00:00.000 : :1
00:02:57.551 : :2
00:10:37.094 : :3
00:17:06.400 : :4
00:32:12.680 : :5
00:35:26.331 : :6
00:41:46.420 : :7
00:46:44.217 : :8
00:51:06.146 : :9
01:04:01.628 : :10
01:15:26.104 : :11
01:27:19.984 : :12





















   Похожие торренты   Торрент   Размер 
В этой теме нет новых непрочитанных сообщений. Скрытые миры 3Д: Пещеры мёртвых / Verborgene Welten 3D: Die Hoehlen der Toten (2013) BDRip 1080p | 60 fps | 3D-Video | HSBS | L1

25 | 17

38.9 ГБ

В этой теме нет новых непрочитанных сообщений. Best of 3D (Vol. 1-9) (2013) BDRip 1080p от Ash61 | 3D-Video | halfOU

146 | 133

35.86 ГБ

В этой теме нет новых непрочитанных сообщений. Беги / Run (2013) BDRip 1080p от Ash61 | 3D-Video | halfOU

306 | 180

10.08 ГБ

В этой теме нет новых непрочитанных сообщений. Мистер Гоу / Mi-seu-teo Go / Mr. Go (2013) BDRip 1080p от Ash61 | 3D-Video | halfOU | L1

107 | 67

17.45 ГБ

В этой теме нет новых непрочитанных сообщений. Кумба / Khumba (2013) BDRip 1080p от Ash61 | 3D-Video | halfOU

276 | 61

3.9 ГБ

В этой теме нет новых непрочитанных сообщений. Четверо 2 / Si Da Ming Bu 2 / The Four 2 (2013) BDRip 1080p от Ash61 | 3D-Video | halfOU | L2

134 | 162

14.25 ГБ

В этой теме нет новых непрочитанных сообщений. Я, Франкенштейн / I, Frankenstein (2013) BDRip 1080p от Ash61 | 3D-Video | halfOU

292 | 175

8.29 ГБ




Вы не можете начинать темы
Вы не можете отвечать на сообщения
Вы не можете редактировать свои сообщения
Вы не можете удалять свои сообщения
Вы не можете добавлять вложения

Перейти:  
Для Мосгорсуда, Роскомнадзора и рекламодателей: mosgorsud-torrent[собачка]yandex.ru
 Вход
ppkBB3cker v.2 © 2008-2014 @ PPK
[ Time : 0.029s | 16 Queries | GZIP : Off ]

Торрент трекер RUTOR.IN, Не можете зайти на rutor.org? Какой новый адрес рутор? Какое зеркало рутор? Не работает rutor.org и зеркала? Тогда наш торрент специально для вас. Rutor.in неофициальное зеркало rutor. В случае если у Вас заблокирован rutor или вдруг Вы не можете на него зайти, то Вы без труда сможете скачать бесплатно и без рекламы последние новинки кино, игр, сериалов и прочего у нас, на Rutor.in. Не нужно использовать прокси, чтобы зайти на рутор, достаточно воспользоваться нашим ресурсом. Все новые фильмы, игры, сериалы, книги и музыка за 2013 и 2014 годы через торрент бесплатно. Скачивайте фильмы в хорошем качестве, игры для пк, xbox, playstation без регистрации. У нас вы найдете новые Зарубежные сериалы и Русские сериалы 2013, 2014, 2015 годов. Оставайтесь с нами, качайте любимые фильмы, игры, сериалы, книги и музыку.
cron