img image001 image001 image001 image001 image001 image001 image001 image001 image001 image001 image001 image001 image001 image001 image001

Planets Sun Sun Sun
Статистика раздачи
Автор: Nickolas3434 | Размер: 1.46 ГБ | Добавлен: 25 мар 2015
Раздают: 23    Качают: 12
Скачать торрент
Скачать торрент
Описание торрента

СообщениеДобавлено: 25 мар 2015 

Страна: США
Производство: Agencie Jules Verne, Bac Films, Canal+ [fr]
Жанр: документальный, семейный
Год выпуска: 1996
Продолжительность: 01:15:19
Перевод: Профессиональный (Одноголосый закадровый)
Оригинальная аудиодорожка: нет
Cубтитры: русский, английский
Режиссер: Клод Нуридзани / Claude Nuridsany, Мари Перену / Marie Pérennou
В ролях:
Жак Перрен, Кристин Скотт Томас...
Описание:
Полтора часа, проведенные на неизвестной планете, где все расстояния измеряются миллиметрами. Ее обитатели: фантастические создания, насекомые, улитки и прочие обитатели травы и воды. Ее пейзажи: непроходимые дебри травяных кущ, капли росы, огромные, как воздушные шары. Зритель открывает для себя прекрасный, сияющий всеми красками радуги параллельный мир, где работают иные физические законы. Мир, залитый ирреальным светом, полный неведомых звуков. Страна, где животные умеют ходить по воде или разгуливать вниз головой. Фазан, разгуливающий по муравьиной тропе производит на вас не меньшее впечатление, чем Годзилла из знаменитого триллера, а обычная летняя гроза заставляет вспомнить о воздушной атаке сотни тяжелых бомбардировщиков. Постоянные переходы из одного мира в другой дают ошеломленным зрителям почувствовать относительность наших представлений о пространстве. Зритель ощущает себя крохотным десантником, заброшенным в самый эпицентр действия. Он слышит грохот муравьиных войн и рев пчелиных крыльев у себя за спиной...






Исходник: BDRemux 1080p
Тип релиза: BDRip
Контейнер: AVI
Видео: 720x432 (1,667:1), 24,000 fps, XviD ~ 1863 kbps avg, 0.250 bit/pixel
Аудио: 48 kHz, Dolby Digital AC3, 5.1 ch, 448.00 kbps русский
Аудио: 48 kHz, Dolby Digital AC3, 5.1 ch, 448.00 kbps английский
Формат субтитров: SoftSub (srt)
Раздача от:
Формат : AVI
Формат/Информация : Audio Video Interleave
Размер файла : 1,46 Гбайт
Продолжительность : 1 ч. 15 м.
Общий поток : 2774 Кбит/сек
Программа кодирования : VirtualDubModRus 1.5.10.2 (build 2542/release)
Библиотека кодирования : VirtualDubMod build 2542/release
Видео
Идентификатор : 0
Формат : MPEG-4 Visual
Профиль формата : Advanced Simple@L5
Параметр BVOP формата : 1
Параметр QPel формата : Нет
Параметр GMC формата : Без точки перехода
Параметр матрицы формата : Выборочная
Идентификатор кодека : XVID
Идентификатор кодека/Подсказка : XviD
Продолжительность : 1 ч. 15 м.
Битрейт : 1863 Кбит/сек
Ширина : 720 пикселей
Высота : 432 пикселя
Соотношение сторон : 1,667
Частота кадров : 24,000 кадра/сек
Цветовое пространство : YUV
Субдискретизация насыщенности : 4:2:0
Битовая глубина : 8 бит
Тип развёртки : Прогрессивная
Метод сжатия : С потерями
Бит/(Пиксели*Кадры) : 0.250
Размер потока : 1004 Мбайт (67%)
Библиотека кодирования : XviD 73
Аудио #1
Идентификатор : 1
Формат : AC-3
Формат/Информация : Audio Coding 3
Расширение режима : CM (complete main)
Параметр Endianness формата : Big
Идентификатор кодека : 2000
Продолжительность : 1 ч. 15 м.
Вид битрейта : Постоянный
Битрейт : 448 Кбит/сек
Каналы : 6 каналов
Расположение каналов : Front: L C R, Side: L R, LFE
Частота : 48,0 КГц
Битовая глубина : 16 бит
Метод сжатия : С потерями
Размер потока : 241 Мбайт (16%)
Выравнивание : Разделение по промежуткам
Продолжительность промежутка : 42 мс. (1,00 видеокадр)
Время предзагрузки промежутка : 500 мс.
Аудио #2
Идентификатор : 2
Формат : AC-3
Формат/Информация : Audio Coding 3
Расширение режима : CM (complete main)
Параметр Endianness формата : Big
Идентификатор кодека : 2000
Продолжительность : 1 ч. 15 м.
Вид битрейта : Постоянный
Битрейт : 448 Кбит/сек
Каналы : 6 каналов
Расположение каналов : Front: L C R, Side: L R, LFE
Частота : 48,0 КГц
Битовая глубина : 16 бит
Метод сжатия : С потерями
Размер потока : 241 Мбайт (16%)
Выравнивание : Разделение по промежуткам
Продолжительность промежутка : 42 мс. (1,00 видеокадр)
Время предзагрузки промежутка : 500 мс





   Похожие торренты   Торрент   Размер 
В этой теме нет новых непрочитанных сообщений. Микрокосмос / Microcosmos: Le peuple de l'herbe (1996) BDRip от New-Team

21 | 6

745.01 МБ

В этой теме нет новых непрочитанных сообщений. Микрокосмос / Microcosmos: Le peuple de l'herbe (1996) BDRip-AVC от New-Team

61 | 6

1.46 ГБ

В этой теме нет новых непрочитанных сообщений. Микрокосмос / Microcosmos: Le peuple de l'herbe (1996) BDRip 720p от New-Team

127 | 8

2.91 ГБ

В этой теме нет новых непрочитанных сообщений. Микрокосмос / Microcosmos: Le peuple de l'herbe (1996) BDRip 1080p

72 | 5

4.37 ГБ

В этой теме нет новых непрочитанных сообщений. Микрокосмос / Microcosmos: Le peuple de l'herbe (1996) BDRip от HQ-ViDEO

6 | 8

1.45 ГБ

В этой теме нет новых непрочитанных сообщений. Микрокосмос / Microcosmos: Le peuple de l'herbe (1996) BDRip-AVC от ExKinoRay | P1

28 | 3

2.61 ГБ

В этой теме нет новых непрочитанных сообщений. Микрокосмос / Microcosmos: Le peuple de l'herbe (1996) BDRip от HQCLUB

19 | 2

1.45 ГБ




Вы не можете начинать темы
Вы не можете отвечать на сообщения
Вы не можете редактировать свои сообщения
Вы не можете удалять свои сообщения
Вы не можете добавлять вложения

Перейти:  
Для Мосгорсуда, Роскомнадзора и рекламодателей: mosgorsud-torrent[собачка]yandex.ru
 Вход
ppkBB3cker v.2 © 2008-2014 @ PPK
[ Time : 0.055s | 15 Queries | GZIP : Off ]

Торрент трекер RUTOR.IN, Не можете зайти на rutor.org? Какой новый адрес рутор? Какое зеркало рутор? Не работает rutor.org и зеркала? Тогда наш торрент специально для вас. Rutor.in неофициальное зеркало rutor. В случае если у Вас заблокирован rutor или вдруг Вы не можете на него зайти, то Вы без труда сможете скачать бесплатно и без рекламы последние новинки кино, игр, сериалов и прочего у нас, на Rutor.in. Не нужно использовать прокси, чтобы зайти на рутор, достаточно воспользоваться нашим ресурсом. Все новые фильмы, игры, сериалы, книги и музыка за 2013 и 2014 годы через торрент бесплатно. Скачивайте фильмы в хорошем качестве, игры для пк, xbox, playstation без регистрации. У нас вы найдете новые Зарубежные сериалы и Русские сериалы 2013, 2014, 2015 годов. Оставайтесь с нами, качайте любимые фильмы, игры, сериалы, книги и музыку.