img image001 image001 image001 image001 image001 image001 image001 image001 image001 image001 image001 image001 image001 image001 image001

Planets Sun Sun Sun
Статистика раздачи
Автор: Nickolas3434 | Размер: 745.01 МБ | Добавлен: 25 мар 2015
Раздают: 21    Качают: 6
Скачать торрент
Скачать торрент
Описание торрента

СообщениеДобавлено: 25 мар 2015 

Страна: США
Производство: Agencie Jules Verne, Bac Films, Canal+ [fr]
Жанр: документальный, семейный
Год выпуска: 1996
Продолжительность: 01:15:19
Перевод: Профессиональный (Одноголосый закадровый)
Оригинальная аудиодорожка: нет
Cубтитры: нет
Режиссер: Клод Нуридзани / Claude Nuridsany, Мари Перену / Marie Pérennou
В ролях:
Жак Перрен, Кристин Скотт Томас...
Описание:
Полтора часа, проведенные на неизвестной планете, где все расстояния измеряются миллиметрами. Ее обитатели: фантастические создания, насекомые, улитки и прочие обитатели травы и воды. Ее пейзажи: непроходимые дебри травяных кущ, капли росы, огромные, как воздушные шары. Зритель открывает для себя прекрасный, сияющий всеми красками радуги параллельный мир, где работают иные физические законы. Мир, залитый ирреальным светом, полный неведомых звуков. Страна, где животные умеют ходить по воде или разгуливать вниз головой. Фазан, разгуливающий по муравьиной тропе производит на вас не меньшее впечатление, чем Годзилла из знаменитого триллера, а обычная летняя гроза заставляет вспомнить о воздушной атаке сотни тяжелых бомбардировщиков. Постоянные переходы из одного мира в другой дают ошеломленным зрителям почувствовать относительность наших представлений о пространстве. Зритель ощущает себя крохотным десантником, заброшенным в самый эпицентр действия. Он слышит грохот муравьиных войн и рев пчелиных крыльев у себя за спиной...






Исходник: BDRemux 1080p
Тип релиза: BDRip
Контейнер: AVI
Видео: 720x432 (1,667:1), 24,000 fps, XviD ~ 1246 kbps avg, 0.167 bit/pixel
Аудио: 48 kHz, MP3, 2.0, 128.00 kbps
Раздача от:
Общее
Полное имя : Microcosmos.1996.BDRip-745_[New-team]_by_AVP_Studio.avi
Формат : AVI
Формат/Информация : Audio Video Interleave
Размер файла : 745 Мбайт
Продолжительность : 1 ч. 15 м.
Общий поток : 1383 Кбит/сек
Программа кодирования : VirtualDubModRus 1.5.10.2 (build 2542/release)
Библиотека кодирования : VirtualDubMod build 2542/release
Видео
Идентификатор : 0
Формат : MPEG-4 Visual
Профиль формата : Advanced Simple@L5
Параметр BVOP формата : 1
Параметр QPel формата : Нет
Параметр GMC формата : Без точки перехода
Параметр матрицы формата : Выборочная
Идентификатор кодека : XVID
Идентификатор кодека/Подсказка : XviD
Продолжительность : 1 ч. 15 м.
Битрейт : 1246 Кбит/сек
Ширина : 720 пикселей
Высота : 432 пикселя
Соотношение сторон : 1,667
Частота кадров : 24,000 кадра/сек
Цветовое пространство : YUV
Субдискретизация насыщенности : 4:2:0
Битовая глубина : 8 бит
Тип развёртки : Прогрессивная
Метод сжатия : С потерями
Бит/(Пиксели*Кадры) : 0.167
Размер потока : 671 Мбайт (90%)
Библиотека кодирования : XviD 73
Аудио
Идентификатор : 1
Формат : MPEG Audio
Версия формата : Version 1
Профиль формата : Layer 3
Идентификатор кодека : 55
Идентификатор кодека/Подсказка : MP3
Продолжительность : 1 ч. 15 м.
Вид битрейта : Постоянный
Битрейт : 128 Кбит/сек
Каналы : 2 канала
Частота : 48,0 КГц
Метод сжатия : С потерями
Размер потока : 69,0 Мбайт (9%)
Выравнивание : Соединение по промежуткам
Продолжительность промежутка : 42 мс. (1,00 видеокадр)
Время предзагрузки промежутка : 504 мс.
Библиотека кодирования : LAME3.99r
Настройки программы : -m s -V 4 -q 2 -lowpass 17 -b 128





   Похожие торренты   Торрент   Размер 
В этой теме нет новых непрочитанных сообщений. Микрокосмос / Microcosmos: Le peuple de l'herbe (1996) BDRip от New-Team

18 | 11

1.46 ГБ

В этой теме нет новых непрочитанных сообщений. Микрокосмос / Microcosmos: Le peuple de l'herbe (1996) BDRip-AVC от New-Team

45 | 6

1.46 ГБ

В этой теме нет новых непрочитанных сообщений. Микрокосмос / Microcosmos: Le peuple de l'herbe (1996) BDRip 720p от New-Team

99 | 8

2.91 ГБ

В этой теме нет новых непрочитанных сообщений. Микрокосмос / Microcosmos: Le peuple de l'herbe (1996) BDRip от HQCLUB

19 | 2

1.45 ГБ

В этой теме нет новых непрочитанных сообщений. Микрокосмос / Microcosmos: Le peuple de l'herbe (1996) BDRip 1080p

72 | 5

4.37 ГБ

В этой теме нет новых непрочитанных сообщений. Микрокосмос / Microcosmos: Le peuple de l'herbe (1996) BDRip от HQ-ViDEO

6 | 8

1.45 ГБ

В этой теме нет новых непрочитанных сообщений. Микрокосмос / Microcosmos: Le peuple de l'herbe (1996) BDRip-AVC от ExKinoRay | P1

8 | 0

2.61 ГБ




Вы не можете начинать темы
Вы не можете отвечать на сообщения
Вы не можете редактировать свои сообщения
Вы не можете удалять свои сообщения
Вы не можете добавлять вложения

Перейти:  
Для Мосгорсуда, Роскомнадзора и рекламодателей: mosgorsud-torrent[собачка]yandex.ru
 Вход
ppkBB3cker v.2 © 2008-2014 @ PPK
[ Time : 0.294s | 16 Queries | GZIP : Off ]

cron