img image001 image001 image001 image001 image001 image001 image001 image001 image001 image001 image001 image001 image001 image001 image001

Planets Sun Sun Sun
Статистика раздачи
Автор: Nickolas3434 | Размер: 2.91 ГБ | Добавлен: 26 мар 2015
Раздают: 105    Качают: 8
Скачать торрент
Скачать торрент
Описание торрента

СообщениеДобавлено: 26 мар 2015 

Страна: США
Производство: Agencie Jules Verne, Bac Films, Canal+ [fr]
Жанр: документальный, семейный
Год выпуска: 1996
Продолжительность: 01:15:19
Перевод: Профессиональный (Одноголосый закадровый)
Оригинальная аудиодорожка: нет
Cубтитры: русский, английский
Режиссер: Клод Нуридзани / Claude Nuridsany, Мари Перену / Marie Pérennou
В ролях:
Жак Перрен, Кристин Скотт Томас...
Описание:
Полтора часа, проведенные на неизвестной планете, где все расстояния измеряются миллиметрами. Ее обитатели: фантастические создания, насекомые, улитки и прочие обитатели травы и воды. Ее пейзажи: непроходимые дебри травяных кущ, капли росы, огромные, как воздушные шары. Зритель открывает для себя прекрасный, сияющий всеми красками радуги параллельный мир, где работают иные физические законы. Мир, залитый ирреальным светом, полный неведомых звуков. Страна, где животные умеют ходить по воде или разгуливать вниз головой. Фазан, разгуливающий по муравьиной тропе производит на вас не меньшее впечатление, чем Годзилла из знаменитого триллера, а обычная летняя гроза заставляет вспомнить о воздушной атаке сотни тяжелых бомбардировщиков. Постоянные переходы из одного мира в другой дают ошеломленным зрителям почувствовать относительность наших представлений о пространстве. Зритель ощущает себя крохотным десантником, заброшенным в самый эпицентр действия. Он слышит грохот муравьиных войн и рев пчелиных крыльев у себя за спиной...






Исходник: BDRemux 1080p
Тип релиза: BDRip 720p
Контейнер: MKV
Видео: 1280x768 (1,667:1), 24,000 fps, H264 ~ 4632 kbps avg, 0.196 bit/pixel
Аудио: 48 kHz, Dolby Digital AC3, 5.1 ch, 448.00 kbps русский
Аудио: 48 kHz, Dolby Digital AC3, 5.1 ch, 448.00 kbps английский
Формат субтитров: SoftSub (srt)
Оригинальная навигация по главам: есть
Раздача от:
Общее
Полное имя : Microcosmos.1996.BDRip720p_[New-team]_by_AVP_Studio.mkv
Формат : Matroska
Версия формата : Version 4 / Version 2
Размер файла : 2,91 Гбайт
Продолжительность : 1 ч. 15 м.
Общий поток : 5528 Кбит/сек
Название фильма : Microcosmos.1996.BDRip720p_[New-team]_by_AVP_Studio
Дата кодирования : UTC 2015-03-25 11:07:38
Программа кодирования : mkvmerge v7.6.0 ('Garden of Dreams') 64bit built on Feb 8 2015 13:04:34
Библиотека кодирования : libebml v1.3.1 + libmatroska v1.4.2
DURATION : 00:00:38.370000000
NUMBER_OF_FRAMES : 12
NUMBER_OF_BYTES : 401
_STATISTICS_WRITING_APP : mkvmerge v7.6.0 ('Garden of Dreams') 64bit built on Feb 8 2015 13:04:34
_STATISTICS_WRITING_DATE_UTC : 2015-03-25 11:07:38
_STATISTICS_TAGS : BPS DURATION NUMBER_OF_FRAMES NUMBER_OF_BYTES
Видео
Идентификатор : 1
Формат : AVC
Формат/Информация : Advanced Video Codec
Профиль формата : High@L4.1
Параметр CABAC формата : Да
Параметр ReFrames формата : 6 кадров
Идентификатор кодека : V_MPEG4/ISO/AVC
Продолжительность : 1 ч. 15 м.
Битрейт : 4632 Кбит/сек
Ширина : 1280 пикселей
Высота : 768 пикселей
Соотношение сторон : 1,667
Режим частоты кадров : Постоянный
Частота кадров : 24,000 кадра/сек
Цветовое пространство : YUV
Субдискретизация насыщенности : 4:2:0
Битовая глубина : 8 бит
Тип развёртки : Прогрессивная
Бит/(Пиксели*Кадры) : 0.196
Размер потока : 2,38 Гбайт (82%)
Заголовок : Источник BDRemux
Библиотека кодирования : x264 core 138 r2356 a1d3d17
Настройки программы : cabac=1 / ref=6 / deblock=1:-3:-3 / analyse=0x3:0x133 / me=umh / subme=10 / psy=1 / psy_rd=1.00:0.05 / mixed_ref=1 / me_range=32 / chroma_me=1 / trellis=2 / 8x8dct=1 / cqm=0 / deadzone=21,11 / fast_pskip=0 / chroma_qp_offset=-3 / threads=6 / lookahead_threads=1 / sliced_threads=0 / nr=0 / decimate=0 / interlaced=0 / bluray_compat=0 / constrained_intra=0 / bframes=8 / b_pyramid=2 / b_adapt=2 / b_bias=0 / direct=3 / weightb=1 / open_gop=0 / weightp=2 / keyint=240 / keyint_min=24 / scenecut=40 / intra_refresh=0 / rc=2pass / mbtree=0 / bitrate=4632 / ratetol=1.0 / qcomp=0.60 / qpmin=0 / qpmax=69 / qpstep=4 / cplxblur=20.0 / qblur=0.5 / ip_ratio=1.40 / pb_ratio=1.30 / aq=1:1.00
Язык : French
Default : Да
Forced : Нет
Аудио #1
Идентификатор : 2
Формат : AC-3
Формат/Информация : Audio Coding 3
Расширение режима : CM (complete main)
Параметр Endianness формата : Big
Идентификатор кодека : A_AC3
Продолжительность : 1 ч. 15 м.
Вид битрейта : Постоянный
Битрейт : 448 Кбит/сек
Каналы : 6 каналов
Расположение каналов : Front: L C R, Side: L R, LFE
Частота : 48,0 КГц
Битовая глубина : 16 бит
Метод сжатия : С потерями
Размер потока : 241 Мбайт (8%)
Заголовок : Источник BDRemux Dolby Digital 5,1 448 kbps
Язык : Russian
Default : Да
Forced : Нет
Аудио #2
Идентификатор : 3
Формат : AC-3
Формат/Информация : Audio Coding 3
Расширение режима : CM (complete main)
Параметр Endianness формата : Big
Идентификатор кодека : A_AC3
Продолжительность : 1 ч. 15 м.
Вид битрейта : Постоянный
Битрейт : 448 Кбит/сек
Каналы : 6 каналов
Расположение каналов : Front: L C R, Side: L R, LFE
Частота : 48,0 КГц
Битовая глубина : 16 бит
Метод сжатия : С потерями
Размер потока : 241 Мбайт (8%)
Заголовок : Источник BDRemux Dolby Digital 5,1 448 kbps
Язык : English
Default : Нет
Forced : Нет
Текст #1
Идентификатор : 4
Формат : UTF-8
Идентификатор кодека : S_TEXT/UTF8
Идентификатор кодека/Информация : UTF-8 Plain Text
Заголовок : Источник BDRemux SoftSub (srt)
Язык : Russian
Default : Нет
Forced : Нет
Текст #2
Идентификатор : 5
Формат : UTF-8
Идентификатор кодека : S_TEXT/UTF8
Идентификатор кодека/Информация : UTF-8 Plain Text
Заголовок : Источник BDRemux SoftSub (srt)
Язык : English
Default : Нет
Forced : Нет
Меню
00:00:00.000 : en:00:00:00.000
00:05:44.625 : en:00:05:44.625
00:07:12.041 : en:00:07:12.041
00:09:32.833 : en:00:09:32.833
00:11:38.916 : en:00:11:38.916
00:15:36.458 : en:00:15:36.458
00:17:57.000 : en:00:17:57.000
00:18:50.958 : en:00:18:50.958
00:23:09.500 : en:00:23:09.500
00:25:29.583 : en:00:25:29.583
00:28:50.250 : en:00:28:50.250
00:32:03.083 : en:00:32:03.083
00:35:00.750 : en:00:35:00.750
00:39:29.375 : en:00:39:29.375
00:43:27.750 : en:00:43:27.750
00:51:59.333 : en:00:51:59.333
00:53:23.375 : en:00:53:23.375
00:58:33.625 : en:00:58:33.625
01:01:59.833 : en:01:01:59.833
01:04:01.875 : en:01:04:01.875
01:09:15.583 : en:01:09:15.583





   Похожие торренты   Торрент   Размер 
В этой теме нет новых непрочитанных сообщений. Микрокосмос / Microcosmos: Le peuple de l'herbe (1996) BDRip-AVC от New-Team

61 | 6

1.46 ГБ

В этой теме нет новых непрочитанных сообщений. Микрокосмос / Microcosmos: Le peuple de l'herbe (1996) BDRip от New-Team

21 | 6

745.01 МБ

В этой теме нет новых непрочитанных сообщений. Микрокосмос / Microcosmos: Le peuple de l'herbe (1996) BDRip от New-Team

23 | 12

1.46 ГБ

В этой теме нет новых непрочитанных сообщений. Микрокосмос / Microcosmos: Le peuple de l'herbe (1996) BDRip 720p от FreeHD

0 | 2

4.36 ГБ

В этой теме нет новых непрочитанных сообщений. Микрокосмос / Microcosmos: Le peuple de l'herbe (1996) BDRip 1080p

72 | 5

4.37 ГБ

В этой теме нет новых непрочитанных сообщений. Микрокосмос / Microcosmos: Le peuple de l'herbe (1996) BDRip от HQCLUB

19 | 2

1.45 ГБ

В этой теме нет новых непрочитанных сообщений. Микрокосмос / Microcosmos: Le peuple de l'herbe (1996) BDRip от HQ-ViDEO

6 | 8

1.45 ГБ




Вы не можете начинать темы
Вы не можете отвечать на сообщения
Вы не можете редактировать свои сообщения
Вы не можете удалять свои сообщения
Вы не можете добавлять вложения

Перейти:  
Для Мосгорсуда, Роскомнадзора и рекламодателей: mosgorsud-torrent[собачка]yandex.ru
 Вход
ppkBB3cker v.2 © 2008-2014 @ PPK
[ Time : 0.814s | 15 Queries | GZIP : Off ]

Торрент трекер RUTOR.IN, Не можете зайти на rutor.org? Какой новый адрес рутор? Какое зеркало рутор? Не работает rutor.org и зеркала? Тогда наш торрент специально для вас. Rutor.in неофициальное зеркало rutor. В случае если у Вас заблокирован rutor или вдруг Вы не можете на него зайти, то Вы без труда сможете скачать бесплатно и без рекламы последние новинки кино, игр, сериалов и прочего у нас, на Rutor.in. Не нужно использовать прокси, чтобы зайти на рутор, достаточно воспользоваться нашим ресурсом. Все новые фильмы, игры, сериалы, книги и музыка за 2013 и 2014 годы через торрент бесплатно. Скачивайте фильмы в хорошем качестве, игры для пк, xbox, playstation без регистрации. У нас вы найдете новые Зарубежные сериалы и Русские сериалы 2013, 2014, 2015 годов. Оставайтесь с нами, качайте любимые фильмы, игры, сериалы, книги и музыку.