img image001 image001 image001 image001 image001 image001 image001 image001 image001 image001 image001 image001 image001 image001 image001

Planets Sun Sun Sun
Статистика раздачи
Автор: Nickolas3434 | Размер: 2.18 ГБ | Добавлен: 31 мар 2015
Раздают: 20    Качают: 11
Скачать торрент
Скачать торрент
Описание торрента

СообщениеДобавлено: 31 мар 2015 

Страна: Франция
Производство: Galatée Films
Жанр: документальный
Год выпуска: 2002
Продолжительность: 02:31:21 (00:50:31 + 00:50:49 + 00:50:01)
Перевод: Профессиональный (Одноголосый закадровый)
Оригинальная аудиодорожка: Французский
Cубтитры: нет
Режиссер: Жак Клузо / Jacques Cluzaud
В ролях:
Жак Перрен, Стефан Дюрен...
Описание:
Полтора часа, проведенные на неизвестной планете, где все расстояния измеряются миллиметрами. Ее обитатели: фантастические создания, насекомые, улитки и прочие обитатели травы и воды. Ее пейзажи: непроходимые дебри травяных кущ, капли росы, огромные, как воздушные шары. Зритель открывает для себя прекрасный, сияющий всеми красками радуги параллельный мир, где работают иные физические законы. Мир, залитый ирреальным светом, полный неведомых звуков. Страна, где животные умеют ходить по воде или разгуливать вниз головой. Фазан, разгуливающий по муравьиной тропе производит на вас не меньшее впечатление, чем Годзилла из знаменитого триллера, а обычная летняя гроза заставляет вспомнить о воздушной атаке сотни тяжелых бомбардировщиков. Постоянные переходы из одного мира в другой дают ошеломленным зрителям почувствовать относительность наших представлений о пространстве. Зритель ощущает себя крохотным десантником, заброшенным в самый эпицентр действия. Он слышит грохот муравьиных войн и рев пчелиных крыльев у себя за спиной...





Исходник: DVD9 R5
Тип релиза: DVDRip
Контейнер: AVI
Видео: 688x384 (16:9), 25,000 fps, XviD ~ 1283 kbps avg, 0. 194 bit/pixel
Аудио: 48 kHz, Dolby Digital AC3, 5.1 ch, 384.00 kbps русский
Аудио: 48 kHz, Dolby Digital AC3, 5.1 ch, 384.00 kbps французский
Раздача от:
Общее
Полное имя : Pticy.Krylya.prirody.2002.DVDRip_[New-team]_by_AVP_Studio\01. Весна. Лето.avi
Формат : AVI
Формат/Информация : Audio Video Interleave
Размер файла : 746 Мбайт
Продолжительность : 50 м.
Общий поток : 2065 Кбит/сек
Программа кодирования : VirtualDubModRus 1.5.10.2 (build 2542/release)
Библиотека кодирования : VirtualDubMod build 2542/release
Видео
Идентификатор : 0
Формат : MPEG-4 Visual
Профиль формата : Advanced Simple@L5
Параметр BVOP формата : 1
Параметр QPel формата : Нет
Параметр GMC формата : Без точки перехода
Параметр матрицы формата : Выборочная
Идентификатор кодека : XVID
Идентификатор кодека/Подсказка : XviD
Продолжительность : 50 м.
Битрейт : 1283 Кбит/сек
Ширина : 688 пикселей
Высота : 384 пикселя
Соотношение сторон : 16:9
Частота кадров : 25,000 кадров/сек
Цветовое пространство : YUV
Субдискретизация насыщенности : 4:2:0
Битовая глубина : 8 бит
Тип развёртки : Прогрессивная
Метод сжатия : С потерями
Бит/(Пиксели*Кадры) : 0.194
Размер потока : 464 Мбайт (62%)
Библиотека кодирования : XviD 73
Аудио #1
Идентификатор : 1
Формат : AC-3
Формат/Информация : Audio Coding 3
Расширение режима : CM (complete main)
Параметр Endianness формата : Big
Идентификатор кодека : 2000
Продолжительность : 50 м.
Вид битрейта : Постоянный
Битрейт : 384 Кбит/сек
Каналы : 6 каналов
Расположение каналов : Front: L C R, Side: L R, LFE
Частота : 48,0 КГц
Битовая глубина : 16 бит
Метод сжатия : С потерями
Задержка видео : 80 мс.
Размер потока : 139 Мбайт (19%)
Выравнивание : Разделение по промежуткам
Продолжительность промежутка : 40 мс. (1,00 видеокадр)
Время предзагрузки промежутка : 500 мс.
Аудио #2
Идентификатор : 2
Формат : AC-3
Формат/Информация : Audio Coding 3
Расширение режима : CM (complete main)
Параметр Endianness формата : Big
Идентификатор кодека : 2000
Продолжительность : 50 м.
Вид битрейта : Постоянный
Битрейт : 384 Кбит/сек
Каналы : 6 каналов
Расположение каналов : Front: L C R, Side: L R, LFE
Частота : 48,0 КГц
Битовая глубина : 16 бит
Метод сжатия : С потерями
Размер потока : 139 Мбайт (19%)
Выравнивание : Разделение по промежуткам
Продолжительность промежутка : 40 мс. (1,00 видеокадр)
Время предзагрузки промежутка : 500 мс





   Похожие торренты   Торрент   Размер 
В этой теме нет новых непрочитанных сообщений. Птицы: Крылья природы / Les ailes de la nature (2002) DVDRip от New-Team

46 | 11

1.46 ГБ

В этой теме нет новых непрочитанных сообщений. Птицы: Крылья природы / Les ailes de la nature (2002) DVDRip-AVC от New-Team

29 | 11

2.18 ГБ

В этой теме нет новых непрочитанных сообщений. Мир живой природы VI / Чудеса природы / NHK. Nature Wonder Land VI [01-12 из 13] (2012) HDTVRip от GeneralFilm

96 | 28

3.52 ГБ

В этой теме нет новых непрочитанных сообщений. Мир живой природы VI / Чудеса природы / NHK. Nature Wonder Land VI [01-13 из 13] (2012) HDTVRip от GeneralFilm

24 | 9

3.81 ГБ

В этой теме нет новых непрочитанных сообщений. Силы природы / Forces of Nature (1999) DVDRip

176 | 12

1.37 ГБ

В этой теме нет новых непрочитанных сообщений. Трое в Каноэ-2: Зов природы / Without a Paddle Nature's Calling (2009) DVDRip

87 | 13

1.37 ГБ

В этой теме нет новых непрочитанных сообщений. ВВС: Чудеса живой природы / ВВС: Nature's Great Events [01-03 из 3] (2005) DVDRip от Generalfilm

79 | 21

1.47 ГБ




Вы не можете начинать темы
Вы не можете отвечать на сообщения
Вы не можете редактировать свои сообщения
Вы не можете удалять свои сообщения
Вы не можете добавлять вложения

Перейти:  
Для Мосгорсуда, Роскомнадзора и рекламодателей: mosgorsud-torrent[собачка]yandex.ru
 Вход
ppkBB3cker v.2 © 2008-2014 @ PPK
[ Time : 0.522s | 17 Queries | GZIP : Off ]

Торрент трекер RUTOR.IN, Не можете зайти на rutor.org? Какой новый адрес рутор? Какое зеркало рутор? Не работает rutor.org и зеркала? Тогда наш торрент специально для вас. Rutor.in неофициальное зеркало rutor. В случае если у Вас заблокирован rutor или вдруг Вы не можете на него зайти, то Вы без труда сможете скачать бесплатно и без рекламы последние новинки кино, игр, сериалов и прочего у нас, на Rutor.in. Не нужно использовать прокси, чтобы зайти на рутор, достаточно воспользоваться нашим ресурсом. Все новые фильмы, игры, сериалы, книги и музыка за 2013 и 2014 годы через торрент бесплатно. Скачивайте фильмы в хорошем качестве, игры для пк, xbox, playstation без регистрации. У нас вы найдете новые Зарубежные сериалы и Русские сериалы 2013, 2014, 2015 годов. Оставайтесь с нами, качайте любимые фильмы, игры, сериалы, книги и музыку.