img image001 image001 image001 image001 image001 image001 image001 image001 image001 image001 image001 image001 image001 image001 image001

Planets Sun Sun Sun
Статистика раздачи
Автор: Nickolas3434 | Размер: 2.18 ГБ | Добавлен: 31 мар 2015
Раздают: 17    Качают: 8
Скачать торрент
Скачать торрент
Описание торрента

СообщениеДобавлено: 31 мар 2015 

Страна: Франция
Производство: Galatée Films
Жанр: документальный
Год выпуска: 2002
Продолжительность: 02:31:21 (00:50:31 + 00:50:49 + 00:50:01)
Перевод: Профессиональный (Одноголосый закадровый)
Оригинальная аудиодорожка: Французский
Cубтитры: нет
Режиссер: Жак Клузо / Jacques Cluzaud
В ролях:
Жак Перрен, Стефан Дюрен...
Описание:
Полтора часа, проведенные на неизвестной планете, где все расстояния измеряются миллиметрами. Ее обитатели: фантастические создания, насекомые, улитки и прочие обитатели травы и воды. Ее пейзажи: непроходимые дебри травяных кущ, капли росы, огромные, как воздушные шары. Зритель открывает для себя прекрасный, сияющий всеми красками радуги параллельный мир, где работают иные физические законы. Мир, залитый ирреальным светом, полный неведомых звуков. Страна, где животные умеют ходить по воде или разгуливать вниз головой. Фазан, разгуливающий по муравьиной тропе производит на вас не меньшее впечатление, чем Годзилла из знаменитого триллера, а обычная летняя гроза заставляет вспомнить о воздушной атаке сотни тяжелых бомбардировщиков. Постоянные переходы из одного мира в другой дают ошеломленным зрителям почувствовать относительность наших представлений о пространстве. Зритель ощущает себя крохотным десантником, заброшенным в самый эпицентр действия. Он слышит грохот муравьиных войн и рев пчелиных крыльев у себя за спиной...





Исходник: DVD9 R5
Тип релиза: DVDRip-AVC
Контейнер: MKV
Видео: 688->736x412 (16:9), 25,000 fps, H264 ~ 1290 kbps avg, 0. 182 bit/pixel
Аудио: 48 kHz, Dolby Digital AC3, 5.1 ch, 384.00 kbps русский
Аудио: 48 kHz, Dolby Digital AC3, 5.1 ch, 384.00 kbps французский
Раздача от:
Общее
Полное имя : Pticy.Krylya.prirody.2002.DVDRip-AVC_[New-team]_by_AVP_Studio\03. Морские птицы.mkv
Формат : Matroska
Версия формата : Version 4 / Version 2
Размер файла : 737 Мбайт
Продолжительность : 50 м.
Общий поток : 2060 Кбит/сек
Название фильма : Pticy.Krylya.prirody.2002.DVDRip-AVC_[New-team]_by_AVP_Studio 03. Морские птицы
Дата кодирования : UTC 2015-03-30 15:46:15
Программа кодирования : mkvmerge v7.6.0 ('Garden of Dreams') 64bit built on Feb 8 2015 13:04:34
Библиотека кодирования : libebml v1.3.1 + libmatroska v1.4.2
DURATION : 00:50:01.568000000
NUMBER_OF_FRAMES : 93799
NUMBER_OF_BYTES : 144075264
_STATISTICS_WRITING_APP : mkvmerge v7.6.0 ('Garden of Dreams') 64bit built on Feb 8 2015 13:04:34
_STATISTICS_WRITING_DATE_UTC : 2015-03-30 15:46:15
_STATISTICS_TAGS : BPS DURATION NUMBER_OF_FRAMES NUMBER_OF_BYTES
Видео
Идентификатор : 1
Формат : AVC
Формат/Информация : Advanced Video Codec
Профиль формата : High@L4.1
Параметр CABAC формата : Да
Параметр ReFrames формата : 8 кадров
Идентификатор кодека : V_MPEG4/ISO/AVC
Продолжительность : 50 м.
Битрейт : 1290 Кбит/сек
Ширина : 688 пикселей
Высота : 412 пикселей
Соотношение сторон : 16:9
Соотношение сторон в оригинале : 16:9
Режим частоты кадров : Постоянный
Частота кадров : 25,000 кадров/сек
Цветовое пространство : YUV
Субдискретизация насыщенности : 4:2:0
Битовая глубина : 8 бит
Тип развёртки : Прогрессивная
Бит/(Пиксели*Кадры) : 0.182
Размер потока : 448 Мбайт (61%)
Заголовок : Источник DVD
Библиотека кодирования : x264 core 138 r2356 a1d3d17
Настройки программы : cabac=1 / ref=8 / deblock=1:-2:-1 / analyse=0x3:0x113 / me=umh / subme=10 / psy=1 / psy_rd=1.00:0.05 / mixed_ref=1 / me_range=32 / chroma_me=1 / trellis=2 / 8x8dct=1 / cqm=0 / deadzone=21,11 / fast_pskip=0 / chroma_qp_offset=-3 / threads=6 / lookahead_threads=1 / sliced_threads=0 / nr=0 / decimate=0 / interlaced=0 / bluray_compat=0 / constrained_intra=0 / bframes=8 / b_pyramid=2 / b_adapt=2 / b_bias=0 / direct=3 / weightb=1 / open_gop=0 / weightp=2 / keyint=250 / keyint_min=25 / scenecut=40 / intra_refresh=0 / rc=2pass / mbtree=0 / bitrate=1290 / ratetol=1.0 / qcomp=0.60 / qpmin=0 / qpmax=69 / qpstep=4 / cplxblur=20.0 / qblur=0.5 / ip_ratio=1.40 / pb_ratio=1.30 / aq=1:1.00
Язык : French
Default : Да
Forced : Нет
Аудио #1
Идентификатор : 2
Формат : AC-3
Формат/Информация : Audio Coding 3
Расширение режима : CM (complete main)
Параметр Endianness формата : Big
Идентификатор кодека : A_AC3
Продолжительность : 50 м.
Вид битрейта : Постоянный
Битрейт : 384 Кбит/сек
Каналы : 6 каналов
Расположение каналов : Front: L C R, Side: L R, LFE
Частота : 48,0 КГц
Битовая глубина : 16 бит
Метод сжатия : С потерями
Размер потока : 137 Мбайт (19%)
Заголовок : Источник DVD Dolby Digital 5,1 384 kbps
Язык : Russian
Default : Да
Forced : Нет
Аудио #2
Идентификатор : 3
Формат : AC-3
Формат/Информация : Audio Coding 3
Расширение режима : CM (complete main)
Параметр Endianness формата : Big
Идентификатор кодека : A_AC3
Продолжительность : 50 м.
Вид битрейта : Постоянный
Битрейт : 384 Кбит/сек
Каналы : 6 каналов
Расположение каналов : Front: L C R, Side: L R, LFE
Частота : 48,0 КГц
Битовая глубина : 16 бит
Метод сжатия : С потерями
Размер потока : 137 Мбайт (19%)
Заголовок : Источник DVD Dolby Digital 5,1 384 kbps
Язык : French
Default : Нет
Forced : Нет





   Похожие торренты   Торрент   Размер 
В этой теме нет новых непрочитанных сообщений. Птицы: Крылья природы / Les ailes de la nature (2002) DVDRip от New-Team

20 | 11

2.18 ГБ

В этой теме нет новых непрочитанных сообщений. Птицы: Крылья природы / Les ailes de la nature (2002) DVDRip от New-Team

46 | 11

1.46 ГБ

В этой теме нет новых непрочитанных сообщений. Мир живой природы VI / Чудеса природы / NHK. Nature Wonder Land VI [01-12 из 13] (2012) HDTVRip от GeneralFilm

96 | 28

3.52 ГБ

В этой теме нет новых непрочитанных сообщений. Мир живой природы VI / Чудеса природы / NHK. Nature Wonder Land VI [01-13 из 13] (2012) HDTVRip от GeneralFilm

24 | 9

3.81 ГБ

В этой теме нет новых непрочитанных сообщений. Силы природы / Forces of Nature (1999) DVDRip

176 | 12

1.37 ГБ

В этой теме нет новых непрочитанных сообщений. Трое в Каноэ-2: Зов природы / Without a Paddle Nature's Calling (2009) DVDRip

87 | 13

1.37 ГБ

В этой теме нет новых непрочитанных сообщений. ВВС: Чудеса живой природы / ВВС: Nature's Great Events [01-03 из 3] (2005) DVDRip от Generalfilm

79 | 21

1.47 ГБ




Вы не можете начинать темы
Вы не можете отвечать на сообщения
Вы не можете редактировать свои сообщения
Вы не можете удалять свои сообщения
Вы не можете добавлять вложения

Перейти:  
Для Мосгорсуда, Роскомнадзора и рекламодателей: mosgorsud-torrent[собачка]yandex.ru
 Вход
ppkBB3cker v.2 © 2008-2014 @ PPK
[ Time : 0.063s | 16 Queries | GZIP : Off ]

Торрент трекер RUTOR.IN, Не можете зайти на rutor.org? Какой новый адрес рутор? Какое зеркало рутор? Не работает rutor.org и зеркала? Тогда наш торрент специально для вас. Rutor.in неофициальное зеркало rutor. В случае если у Вас заблокирован rutor или вдруг Вы не можете на него зайти, то Вы без труда сможете скачать бесплатно и без рекламы последние новинки кино, игр, сериалов и прочего у нас, на Rutor.in. Не нужно использовать прокси, чтобы зайти на рутор, достаточно воспользоваться нашим ресурсом. Все новые фильмы, игры, сериалы, книги и музыка за 2013 и 2014 годы через торрент бесплатно. Скачивайте фильмы в хорошем качестве, игры для пк, xbox, playstation без регистрации. У нас вы найдете новые Зарубежные сериалы и Русские сериалы 2013, 2014, 2015 годов. Оставайтесь с нами, качайте любимые фильмы, игры, сериалы, книги и музыку.
cron