img image001 image001 image001 image001 image001 image001 image001 image001 image001 image001 image001 image001 image001 image001 image001

Planets Sun Sun Sun
Статистика раздачи
Автор: Nickolas3434 | Размер: 744.4 МБ | Добавлен: 02 апр 2015
Раздают: 18    Качают: 5
Скачать торрент
Скачать торрент
Описание торрента

СообщениеДобавлено: 02 апр 2015 

Страна: Франция, Италия, Германия, Испания, Швейцария
Производство: Bac Films, Canal+ [fr], Centre National de la Cinématographie (CNC)
Жанр: документальный
Год выпуска: 2001
Продолжительность: 01:29:17
Перевод: Профессиональный (Одноголосый закадровый)
Оригинальная аудиодорожка: нет
Cубтитры: нет
Режиссер: Жак Перрен / Jacques Perrin, Жак Клюзо / Jacques Cluzaud, Мишель Деба / Michel Debats
В ролях:
Филипп Лабро, Жак Перрен...
Описание:
Этот сенсационный фильм — зрелище настолько завораживающее, что никакие спецэффекты не смогли бы передать невообразимую реальность происходящего. Работа операторов поистине уникальна — впервые в истории кино птиц снимали непосредственно во время полета. Чтобы запечатлеть сезонные миграции главных героев, была максимально усовершенствована съемочная техника, ведь снимать пришлось и в арктическом холоде, и в болоте, и в тумане, а главное — были разработаны сверхлегкие летательные аппараты, способные летать со скоростью и на высоте птиц. Над фильмом работало около 500 человек из разных стран мира, съемки заняли целых три года...






Исходник: BDRemux 1080p
Тип релиза: BDRip
Контейнер: AVI
Видео: 720x400 (16:9), 23,976 fps, XviD ~ 1028 kbps avg, 0.149 bit/pixel
Аудио: 48 kHz, MP3, 2.0 ch, 128.00 kbps
Раздача от:
* С целью добиться того, чтобы птицы не пугались звуков, производимых людьми и кинокамерами, создатели фильма начали приучать к ним некоторых птиц ещё до того, как те вылупились из яиц.
* Эпизод, в котором гусь застревает в индустриальном отстойнике, был преднамеренно организован создателями фильма. После съёмок эпизода, птица была немедленно освобождена.
* А вот эпизод с раненой крачкой, окружённой крабами, не был заранее подготовлен. Птица была спасена съёмочной группой сразу после окончания съёмки - практически в последний момент.
* Премия национальной французской киноакадемии "Сезар" за лучший монтаж
* Номинации на премию "Сезар" за лучший дебют и лучшее музыкальное сопровождение фильма
* Номинация на "Оскар" 2003г. за лучший документальный фильм

Общее
Полное имя : Pticy.2001.BDRip-745_[New-team]_by_AVP_Studio.avi
Формат : AVI
Формат/Информация : Audio Video Interleave
Размер файла : 744 Мбайт
Продолжительность : 1 ч. 29 м.
Общий поток : 1166 Кбит/сек
Программа кодирования : VirtualDubModRus 1.5.10.2 (build 2542/release)
Библиотека кодирования : VirtualDubMod build 2542/release
Видео
Идентификатор : 0
Формат : MPEG-4 Visual
Профиль формата : Advanced Simple@L5
Параметр BVOP формата : 1
Параметр QPel формата : Нет
Параметр GMC формата : Без точки перехода
Параметр матрицы формата : Выборочная
Идентификатор кодека : XVID
Идентификатор кодека/Подсказка : XviD
Продолжительность : 1 ч. 29 м.
Битрейт : 1028 Кбит/сек
Ширина : 720 пикселей
Высота : 400 пикселей
Соотношение сторон : 16:9
Частота кадров : 23,976 кадра/сек
Цветовое пространство : YUV
Субдискретизация насыщенности : 4:2:0
Битовая глубина : 8 бит
Тип развёртки : Прогрессивная
Метод сжатия : С потерями
Бит/(Пиксели*Кадры) : 0.149
Размер потока : 657 Мбайт (88%)
Библиотека кодирования : XviD 73
Аудио
Идентификатор : 1
Формат : MPEG Audio
Версия формата : Version 1
Профиль формата : Layer 3
Идентификатор кодека : 55
Идентификатор кодека/Подсказка : MP3
Продолжительность : 1 ч. 29 м.
Вид битрейта : Постоянный
Битрейт : 128 Кбит/сек
Каналы : 2 канала
Частота : 48,0 КГц
Метод сжатия : С потерями
Размер потока : 81,7 Мбайт (11%)
Выравнивание : Соединение по промежуткам
Продолжительность промежутка : 42 мс. (1,00 видеокадр)
Время предзагрузки промежутка : 504 мс.
Библиотека кодирования : LAME3.99r
Настройки программы : -m s -V 4 -q 2 -lowpass 17 -b 128






   Похожие торренты   Торрент   Размер 
В этой теме нет новых непрочитанных сообщений. Птицы / Le peuple migrateur (2001) BDRip-AVC от New-Team

17 | 9

2.18 ГБ

В этой теме нет новых непрочитанных сообщений. Птицы / Le peuple migrateur (2001) BDRip от New-Team

53 | 9

2.19 ГБ

В этой теме нет новых непрочитанных сообщений. Птицы / Le peuple migrateur (2001) BDRip 720p от New-Team

71 | 21

3.63 ГБ

В этой теме нет новых непрочитанных сообщений. Птицы / Winged Migration / Le peuple migrateur (2001) BDRip 1080p

0 | 0

6.91 ГБ

В этой теме нет новых непрочитанных сообщений. Птицы / Winged Migration / Le peuple migrateur (2001) BDRip от HELLYWOOD

7 | 4

1.45 ГБ

В этой теме нет новых непрочитанных сообщений. Птицы / Winged Migration / Le peuple migrateur (2001) BDRip 1080p

18 | 4

7.76 ГБ

В этой теме нет новых непрочитанных сообщений. Птицы / Winged Migration / Le peuple migrateur (2001) BDRip от HQ-ViDEO

354 | 4

1.46 ГБ




Вы не можете начинать темы
Вы не можете отвечать на сообщения
Вы не можете редактировать свои сообщения
Вы не можете удалять свои сообщения
Вы не можете добавлять вложения

Перейти:  
Для Мосгорсуда, Роскомнадзора и рекламодателей: mosgorsud-torrent[собачка]yandex.ru
 Вход
ppkBB3cker v.2 © 2008-2014 @ PPK
[ Time : 0.093s | 17 Queries | GZIP : Off ]

Торрент трекер RUTOR.IN, Не можете зайти на rutor.org? Какой новый адрес рутор? Какое зеркало рутор? Не работает rutor.org и зеркала? Тогда наш торрент специально для вас. Rutor.in неофициальное зеркало rutor. В случае если у Вас заблокирован rutor или вдруг Вы не можете на него зайти, то Вы без труда сможете скачать бесплатно и без рекламы последние новинки кино, игр, сериалов и прочего у нас, на Rutor.in. Не нужно использовать прокси, чтобы зайти на рутор, достаточно воспользоваться нашим ресурсом. Все новые фильмы, игры, сериалы, книги и музыка за 2013 и 2014 годы через торрент бесплатно. Скачивайте фильмы в хорошем качестве, игры для пк, xbox, playstation без регистрации. У нас вы найдете новые Зарубежные сериалы и Русские сериалы 2013, 2014, 2015 годов. Оставайтесь с нами, качайте любимые фильмы, игры, сериалы, книги и музыку.