img image001 image001 image001 image001 image001 image001 image001 image001 image001 image001 image001 image001 image001 image001 image001

Planets Sun Sun Sun
Статистика раздачи
Автор: Nickolas3434 | Размер: 2.18 ГБ | Добавлен: 02 апр 2015
Раздают: 17    Качают: 9
Скачать торрент
Скачать торрент
Описание торрента

СообщениеДобавлено: 02 апр 2015 

Страна: Франция, Италия, Германия, Испания, Швейцария
Производство: Bac Films, Canal+ [fr], Centre National de la Cinématographie (CNC)
Жанр: документальный
Год выпуска: 2001
Продолжительность: 01:29:17
Перевод: Профессиональный (Одноголосый закадровый)
Оригинальная аудиодорожка: Французский
Cубтитры: русский, английский
Режиссер:
Жак Перрен / Jacques Perrin, Жак Клюзо / Jacques Cluzaud, Мишель Деба / Michel Debats
В ролях:
Филипп Лабро, Жак Перрен...
Описание:
Этот сенсационный фильм — зрелище настолько завораживающее, что никакие спецэффекты не смогли бы передать невообразимую реальность происходящего. Работа операторов поистине уникальна — впервые в истории кино птиц снимали непосредственно во время полета. Чтобы запечатлеть сезонные миграции главных героев, была максимально усовершенствована съемочная техника, ведь снимать пришлось и в арктическом холоде, и в болоте, и в тумане, а главное — были разработаны сверхлегкие летательные аппараты, способные летать со скоростью и на высоте птиц. Над фильмом работало около 500 человек из разных стран мира, съемки заняли целых три года...






Исходник: BDRemux 1080p
Тип релиза: BDRip-AVC
Контейнер: MKV
Видео: 1024x556 (16:9), 23,976 fps, H264 ~ 2148 kbps avg, 0.157 bit/pixel
Аудио: 48 kHz, Dolby Digital AC3, 5.1 ch, 448.00 kbps русский
Аудио: 48 kHz, Dolby Digital AC3, 5.1 ch, 448.00 kbps французский
Аудио: 48 kHz, Dolby Digital AC3, 5.1 ch, 448.00 kbps английский
Формат субтитров: SoftSub (srt)
Оригинальная навигация по главам: есть
Раздача от:
* С целью добиться того, чтобы птицы не пугались звуков, производимых людьми и кинокамерами, создатели фильма начали приучать к ним некоторых птиц ещё до того, как те вылупились из яиц.
* Эпизод, в котором гусь застревает в индустриальном отстойнике, был преднамеренно организован создателями фильма. После съёмок эпизода, птица была немедленно освобождена.
* А вот эпизод с раненой крачкой, окружённой крабами, не был заранее подготовлен. Птица была спасена съёмочной группой сразу после окончания съёмки - практически в последний момент.
* Премия национальной французской киноакадемии "Сезар" за лучший монтаж
* Номинации на премию "Сезар" за лучший дебют и лучшее музыкальное сопровождение фильма
* Номинация на "Оскар" 2003г. за лучший документальный фильм

Общее
Полное имя : Pticy.2001.BDRip-AVC_[New-team]_by_AVP_Studio.mkv
Формат : Matroska
Версия формата : Version 4 / Version 2
Размер файла : 2,18 Гбайт
Продолжительность : 1 ч. 29 м.
Общий поток : 3494 Кбит/сек
Название фильма : Pticy.2001.BDRip-AVC_[New-team]_by_AVP_Studio
Дата кодирования : UTC 2015-03-31 16:50:57
Программа кодирования : mkvmerge v7.6.0 ('Garden of Dreams') 64bit built on Feb 8 2015 13:04:34
Библиотека кодирования : libebml v1.3.1 + libmatroska v1.4.2
DURATION : 01:24:27.855000000
NUMBER_OF_FRAMES : 1135
NUMBER_OF_BYTES : 51845
_STATISTICS_WRITING_APP : mkvmerge v7.6.0 ('Garden of Dreams') 64bit built on Feb 8 2015 13:04:34
_STATISTICS_WRITING_DATE_UTC : 2015-03-31 16:50:57
_STATISTICS_TAGS : BPS DURATION NUMBER_OF_FRAMES NUMBER_OF_BYTES
Видео
Идентификатор : 1
Формат : AVC
Формат/Информация : Advanced Video Codec
Профиль формата : High@L4.1
Параметр CABAC формата : Да
Параметр ReFrames формата : 8 кадров
Идентификатор кодека : V_MPEG4/ISO/AVC
Продолжительность : 1 ч. 29 м.
Битрейт : 2148 Кбит/сек
Ширина : 1024 пикселя
Высота : 556 пикселей
Соотношение сторон : 1,85:1
Режим частоты кадров : Постоянный
Частота кадров : 23,976 кадра/сек
Цветовое пространство : YUV
Субдискретизация насыщенности : 4:2:0
Битовая глубина : 8 бит
Тип развёртки : Прогрессивная
Бит/(Пиксели*Кадры) : 0.157
Размер потока : 1,30 Гбайт (60%)
Заголовок : Источник BDRemux
Библиотека кодирования : x264 core 138 r2356 a1d3d17
Настройки программы : cabac=1 / ref=8 / deblock=1:-3:-2 / analyse=0x3:0x113 / me=umh / subme=10 / psy=1 / psy_rd=1.00:0.05 / mixed_ref=1 / me_range=32 / chroma_me=1 / trellis=2 / 8x8dct=1 / cqm=0 / deadzone=21,11 / fast_pskip=0 / chroma_qp_offset=-3 / threads=6 / lookahead_threads=1 / sliced_threads=0 / nr=0 / decimate=0 / interlaced=0 / bluray_compat=0 / constrained_intra=0 / bframes=8 / b_pyramid=2 / b_adapt=2 / b_bias=0 / direct=3 / weightb=1 / open_gop=0 / weightp=2 / keyint=240 / keyint_min=24 / scenecut=40 / intra_refresh=0 / rc_lookahead=40 / rc=2pass / mbtree=1 / bitrate=2148 / ratetol=1.0 / qcomp=0.60 / qpmin=0 / qpmax=69 / qpstep=4 / cplxblur=20.0 / qblur=0.5 / ip_ratio=1.40 / aq=1:1.00
Язык : French
Default : Да
Forced : Нет
Аудио #1
Идентификатор : 2
Формат : AC-3
Формат/Информация : Audio Coding 3
Расширение режима : CM (complete main)
Параметр Endianness формата : Big
Идентификатор кодека : A_AC3
Продолжительность : 1 ч. 29 м.
Вид битрейта : Постоянный
Битрейт : 448 Кбит/сек
Каналы : 6 каналов
Расположение каналов : Front: L C R, Side: L R, LFE
Частота : 48,0 КГц
Битовая глубина : 16 бит
Метод сжатия : С потерями
Размер потока : 286 Мбайт (13%)
Заголовок : Источник BDRemux Dolby Digital 5,1 448 kbps
Язык : Russian
Default : Да
Forced : Нет
Аудио #2
Идентификатор : 3
Формат : AC-3
Формат/Информация : Audio Coding 3
Расширение режима : CM (complete main)
Параметр Endianness формата : Big
Идентификатор кодека : A_AC3
Продолжительность : 1 ч. 29 м.
Вид битрейта : Постоянный
Битрейт : 448 Кбит/сек
Каналы : 6 каналов
Расположение каналов : Front: L C R, Side: L R, LFE
Частота : 48,0 КГц
Битовая глубина : 16 бит
Метод сжатия : С потерями
Размер потока : 286 Мбайт (13%)
Заголовок : Источник BDRemux Dolby Digital 5,1 448 kbps
Язык : French
Default : Нет
Forced : Нет
Аудио #3
Идентификатор : 4
Формат : AC-3
Формат/Информация : Audio Coding 3
Расширение режима : CM (complete main)
Параметр Endianness формата : Big
Идентификатор кодека : A_AC3
Продолжительность : 1 ч. 29 м.
Вид битрейта : Постоянный
Битрейт : 448 Кбит/сек
Каналы : 6 каналов
Расположение каналов : Front: L C R, Side: L R, LFE
Частота : 48,0 КГц
Битовая глубина : 16 бит
Метод сжатия : С потерями
Размер потока : 286 Мбайт (13%)
Заголовок : Источник BDRemux Dolby Digital 5,1 448 kbps
Язык : English
Default : Нет
Forced : Нет
Текст #1
Идентификатор : 5
Формат : UTF-8
Идентификатор кодека : S_TEXT/UTF8
Идентификатор кодека/Информация : UTF-8 Plain Text
Заголовок : Источник BDRemux SoftSub (srt)
Язык : Russian
Default : Нет
Forced : Нет
Текст #2
Идентификатор : 6
Формат : UTF-8
Идентификатор кодека : S_TEXT/UTF8
Идентификатор кодека/Информация : UTF-8 Plain Text
Заголовок : Источник BDRemux SoftSub (srt)
Язык : English
Default : Нет
Forced : Нет
Текст #3
Идентификатор : 7
Формат : UTF-8
Идентификатор кодека : S_TEXT/UTF8
Идентификатор кодека/Информация : UTF-8 Plain Text
Заголовок : Источник BDRemux SoftSub (srt)
Язык : English
Default : Нет
Forced : Нет
Меню
00:00:00.000 : ru: Rockhopper Penguin
00:07:48.885 : ru: The Amazon
00:11:38.614 : ru: Waders
00:14:54.560 : ru: African White Pelican
00:18:58.637 : ru: Blad Eagle
00:20:21.720 : ru: Bar-Headed Goose
00:23:43.046 : ru: Red-Crowned Crane
00:25:44.417 : ru: Start
00:29:53.374 : ru: Whooper Swan
00:38:09.286 : ru: Barnacle Goose
00:42:02.353 : ru: Canada Goose
00:51:16.364 : ru: White Stork
01:03:58.084 : ru: Snow Goose
01:06:44.083 : ru: Eurasian Crane
01:12:23.922 : ru: Clark's Grebe
01:16:05.852 : ru: Greylag Goose





   Похожие торренты   Торрент   Размер 
В этой теме нет новых непрочитанных сообщений. Птицы / Le peuple migrateur (2001) BDRip от New-Team

77 | 11

2.19 ГБ

В этой теме нет новых непрочитанных сообщений. Птицы / Le peuple migrateur (2001) BDRip от New-Team

18 | 5

744.4 МБ

В этой теме нет новых непрочитанных сообщений. Птицы / Le peuple migrateur (2001) BDRip 720p от New-Team

83 | 25

3.63 ГБ

В этой теме нет новых непрочитанных сообщений. Птицы / Winged Migration / Le peuple migrateur (2001) BDRip-AVC от ExKinoRay

14 | 9

2.43 ГБ

В этой теме нет новых непрочитанных сообщений. Птицы / Winged Migration / Le peuple migrateur (2001) BDRip 1080p

0 | 0

6.91 ГБ

В этой теме нет новых непрочитанных сообщений. Птицы / Winged Migration / Le peuple migrateur (2001) BDRip от HELLYWOOD

7 | 4

1.45 ГБ

В этой теме нет новых непрочитанных сообщений. Птицы / Winged Migration / Le peuple migrateur (2001) BDRip 1080p

18 | 4

7.76 ГБ




Вы не можете начинать темы
Вы не можете отвечать на сообщения
Вы не можете редактировать свои сообщения
Вы не можете удалять свои сообщения
Вы не можете добавлять вложения

Перейти:  
Для Мосгорсуда, Роскомнадзора и рекламодателей: mosgorsud-torrent[собачка]yandex.ru
 Вход
ppkBB3cker v.2 © 2008-2014 @ PPK
[ Time : 0.031s | 15 Queries | GZIP : Off ]

Торрент трекер RUTOR.IN, Не можете зайти на rutor.org? Какой новый адрес рутор? Какое зеркало рутор? Не работает rutor.org и зеркала? Тогда наш торрент специально для вас. Rutor.in неофициальное зеркало rutor. В случае если у Вас заблокирован rutor или вдруг Вы не можете на него зайти, то Вы без труда сможете скачать бесплатно и без рекламы последние новинки кино, игр, сериалов и прочего у нас, на Rutor.in. Не нужно использовать прокси, чтобы зайти на рутор, достаточно воспользоваться нашим ресурсом. Все новые фильмы, игры, сериалы, книги и музыка за 2013 и 2014 годы через торрент бесплатно. Скачивайте фильмы в хорошем качестве, игры для пк, xbox, playstation без регистрации. У нас вы найдете новые Зарубежные сериалы и Русские сериалы 2013, 2014, 2015 годов. Оставайтесь с нами, качайте любимые фильмы, игры, сериалы, книги и музыку.