img image001 image001 image001 image001 image001 image001 image001 image001 image001 image001 image001 image001 image001 image001 image001

Planets Sun Sun Sun
Статистика раздачи
Автор: Nickolas3434 | Размер: 2.76 ГБ | Добавлен: 08 апр 2015
Раздают: 93    Качают: 4
Скачать торрент
Скачать торрент
Описание торрента

СообщениеДобавлено: 08 апр 2015 

Джунгли: Волшебство другого мира / The Jungle: Magic Of Another World

Русское название: Джунгли: Волшебство другого мира
Оригинальное название: The Jungle: Magic Of Another World
Год выпуска: 2012
Жанр: документальный
Выпущено: Германия
Режиссер: Аттила Тенки
Перевод: Профессиональный (одноголосый)

Сюжет фильма:
Авторы фильма приглашают зрителя в увлекательное путешествие в Коста-Рику, в волшебный мир джунглей...Пройди сквозь густые леса. Джунгли Коста-Рики по праву считаются самыми зелеными в Центральной Америке. Эта страна буквально погружена в эти тропические леса, которые поражают своей богатой флорой и фауной. Этот документальный фильм поможет вам оказаться в этом раю, не выходя из дома.

Качество: BDRip 720p
Формат: AVC (библиотека кодирования x.264)
Контейнер (Расширение): MKV
Видео: 1280x720 (16:9), 5319 Кбит/сек, 23,976 кадр/сек, 0,241 Бит/[Пиксели*Кадры]
Аудио №1: русский / AC3 / 5.1 / 48 kHz / 640 kbps / |Профессиональный (одноголосый)|
Аудио №2: английский / AC3 / 5.1 / 48 kHz / 640 kbps /
Субтитры: русские,
Продолжительность: 00:58:38
Автор рипа: Сообщество:

Format : Matroska
Format version : Version 2
File size : 2.76 GiB
Duration : 58mn 38s
Overall bit rate : 6 733 Kbps
Movie name : Dzhungli.Volshebstvo drugogo mira.(2012).BDRip.720p.[denis100]
Encoded date : UTC 2015-04-05 08:56:51
Writing application : mkvmerge v5.8.0 ('No Sleep / Pillow') built on Sep 2 2012 15:37:04
Writing library : libebml v1.2.3 + libmatroska v1.3.0
Video
ID : 1
Format : AVC
Format/Info : Advanced Video Codec
Format profile : High@L4.1
Format settings, CABAC : Yes
Format settings, ReFrames : 9 frames
Codec ID : V_MPEG4/ISO/AVC
Duration : 58mn 38s
Bit rate : 5 319 Kbps
Width : 1 280 pixels
Height : 720 pixels
Display aspect ratio : 16:9
Frame rate : 23.976 fps
Color space : YUV
Chroma subsampling : 4:2:0
Bit depth : 8 bits
Scan type : Progressive
Bits/(Pixel*Frame) : 0.241
Stream size : 2.18 GiB (79%)
Title : Dzhungli.Volshebstvo drugogo mira.(2012).BDRip.720p.[denis100]
Writing library : x264 core 146 r2538 121396c
Encoding settings : cabac=1 / ref=9 / deblock=1:-3:-3 / analyse=0x3:0x133 / me=umh / subme=11 / psy=1 / psy_rd=1.00:0.00 / mixed_ref=1 / me_range=32 / chroma_me=1 / trellis=2 / 8x8dct=1 / cqm=0 / deadzone=21,11 / fast_pskip=0 / chroma_qp_offset=-2 / threads=6 / lookahead_threads=1 / sliced_threads=0 / nr=0 / decimate=1 / interlaced=0 / bluray_compat=0 / constrained_intra=0 / bframes=8 / b_pyramid=2 / b_adapt=2 / b_bias=0 / direct=3 / weightb=1 / open_gop=0 / weightp=2 / keyint=240 / keyint_min=23 / scenecut=40 / intra_refresh=0 / rc=crf / mbtree=0 / crf=18.0 / qcomp=0.60 / qpmin=0 / qpmax=69 / qpstep=4 / ip_ratio=1.40 / pb_ratio=1.30 / aq=1:1.00
Language : English
Default : Yes
Forced : No
Audio #1
ID : 2
Format : AC-3
Format/Info : Audio Coding 3
Mode extension : CM (complete main)
Codec ID : A_AC3
Duration : 58mn 38s
Bit rate mode : Constant
Bit rate : 640 Kbps
Channel(s) : 6 channels
Channel positions : Front: L C R, Side: L R, LFE
Sampling rate : 48.0 KHz
Bit depth : 16 bits
Compression mode : Lossy
Stream size : 268 MiB (10%)
Title : Профессиональный (одноголосый)
Language : Russian
Default : Yes
Forced : No
Audio #2
ID : 3
Format : AC-3
Format/Info : Audio Coding 3
Mode extension : CM (complete main)
Codec ID : A_AC3
Duration : 58mn 38s
Bit rate mode : Constant
Bit rate : 640 Kbps
Channel(s) : 6 channels
Channel positions : Front: L C R, Side: L R, LFE
Sampling rate : 48.0 KHz
Bit depth : 16 bits
Compression mode : Lossy
Stream size : 268 MiB (10%)
Language : English
Default : No
Forced : No
Text
ID : 4
Format : UTF-8
Codec ID : S_TEXT/UTF8
Codec ID/Info : UTF-8 Plain Text
Language : Russian
Default : No
Forced : No



   Похожие торренты   Торрент   Размер 
В этой теме нет новых непрочитанных сообщений. Джунгли: Волшебство другого мира / Der Dschungel - Zauber einer anderen Welt ( 2012) DVDRip-AVC от ~ F-Torrents ~

3 | 1

869.92 МБ

В этой теме нет новых непрочитанных сообщений. Джунгли 3D - Магия другого мира / Der Dschungel 3D - Zauber einer anderen Welt (2012) BDRip 1080p | 3D-Video

20 | 6

8.91 ГБ

В этой теме нет новых непрочитанных сообщений. Над водой: Тайна другого мира / Surface: Mystery of Another World (2012) PC

60 | 1

864.3 МБ

В этой теме нет новых непрочитанных сообщений. Третий акт / Волшебство Бэль Айл / The Magic of Belle Isle (2012) BDRip 720p от MediaClub | P2, L2

87 | 25

6.09 ГБ

В этой теме нет новых непрочитанных сообщений. Из джунглей в джунгли / Jungle 2 Jungle (1997) WEBRip 720p | P

8 | 0

4.37 ГБ

В этой теме нет новых непрочитанных сообщений. Добро пожаловать в джунгли / Welcome to the Jungle (2013) BDRip 720p | L2

316 | 53

4.67 ГБ

В этой теме нет новых непрочитанных сообщений. Третий акт / Волшебство Бэль Айл / The Magic of Belle Isle (2012) BDRip-AVC от MediaClub | P2, L2

65 | 12

2.45 ГБ




Вы не можете начинать темы
Вы не можете отвечать на сообщения
Вы не можете редактировать свои сообщения
Вы не можете удалять свои сообщения
Вы не можете добавлять вложения

Перейти:  
Для Мосгорсуда, Роскомнадзора и рекламодателей: mosgorsud-torrent[собачка]yandex.ru
 Вход
ppkBB3cker v.2 © 2008-2014 @ PPK
[ Time : 0.111s | 16 Queries | GZIP : Off ]

Торрент трекер RUTOR.IN, Не можете зайти на rutor.org? Какой новый адрес рутор? Какое зеркало рутор? Не работает rutor.org и зеркала? Тогда наш торрент специально для вас. Rutor.in неофициальное зеркало rutor. В случае если у Вас заблокирован rutor или вдруг Вы не можете на него зайти, то Вы без труда сможете скачать бесплатно и без рекламы последние новинки кино, игр, сериалов и прочего у нас, на Rutor.in. Не нужно использовать прокси, чтобы зайти на рутор, достаточно воспользоваться нашим ресурсом. Все новые фильмы, игры, сериалы, книги и музыка за 2013 и 2014 годы через торрент бесплатно. Скачивайте фильмы в хорошем качестве, игры для пк, xbox, playstation без регистрации. У нас вы найдете новые Зарубежные сериалы и Русские сериалы 2013, 2014, 2015 годов. Оставайтесь с нами, качайте любимые фильмы, игры, сериалы, книги и музыку.