img image001 image001 image001 image001 image001 image001 image001 image001 image001 image001 image001 image001 image001 image001 image001

Planets Sun Sun Sun
Статистика раздачи
Автор: Nickolas3434 | Размер: 3.02 ГБ | Добавлен: 11 апр 2015
Раздают: 71    Качают: 17
Скачать торрент
Скачать торрент
Описание торрента

СообщениеДобавлено: 11 апр 2015 

Остров лемуров: Мадагаскар / Island of Lemurs: Madagascar

«A real place you could never imagine. Strange creatures you will never forget»

Русское название: Остров лемуров: Мадагаскар
Оригинальное название: Island of Lemurs: Madagascar
Год выпуска: 2014
Жанр: документальный, приключения, семейный, научно-познавательный
Выпущено: Канада, США, Мадагаскар
Режиссер: Дэвид Дуглас
В ролях: Морган Фриман , Патриция Райт
Перевод: Субтитры

Сюжет фильма:
Лемуры оказались на острове миллионы лет назад и постепенно эволюционировали в сотни различных видов. Сегодня эти уникальные животные оказались под угрозой исчезновения. Последуйте примеру ученого-новатора Патрисии Райт, которая всю жизнь оказывает помощь лемурам, сохраняя это чудо природы в современном мире.

Качество: BDRip 1080p
Формат: AVC (библиотека кодирования x.264)
Контейнер (Расширение): MKV
Видео: 1920x1080 (16:9), 10000 Кбит/сек, 23,976 кадр/сек, 0,201 Бит/[Пиксели*Кадры]
Аудио: английский / AC3 / 5.1 / 48 kHz / 640 kbps /
Субтитры: русские (_denis_100), английские (SDH)
Навигация по главам(Чаптеры): есть
Продолжительность: 00:40:39
Автор рипа: Сообщество:

ЦитатаКто-то писал:
Перевод субтитрами, которые включены по умолчанию. К сожалению перевода к этому замечательному фильму нет, как и русских субтитров. Поэтому пришлось перевести оригинальные субтитры на русский. За основу брал английские субтитры-SDH.
Format : Matroska
Format version : Version 2
File size : 3.02 GiB
Duration : 40mn 39s
Overall bit rate : 10.6 Mbps
Movie name : Ostrov lemurov.Madagaskar.(2014).BDRip.1080p.[denis100]
Encoded date : UTC 2015-04-10 08:44:25
Writing application : mkvmerge v5.8.0 ('No Sleep / Pillow') built on Sep 2 2012 15:37:04
Writing library : libebml v1.2.3 + libmatroska v1.3.0
Video
ID : 1
Format : AVC
Format/Info : Advanced Video Codec
Format profile : High@L4.1
Format settings, CABAC : Yes
Format settings, ReFrames : 4 frames
Codec ID : V_MPEG4/ISO/AVC
Duration : 40mn 39s
Bit rate : 10 000 Kbps
Width : 1 920 pixels
Height : 1 080 pixels
Display aspect ratio : 16:9
Frame rate : 23.976 fps
Color space : YUV
Chroma subsampling : 4:2:0
Bit depth : 8 bits
Scan type : Progressive
Bits/(Pixel*Frame) : 0.201
Stream size : 2.78 GiB (92%)
Title : Ostrov lemurov.Madagaskar.(2014).BDRip.1080p.[denis100]
Writing library : x264 core 146 r2538 121396c
Encoding settings : cabac=1 / ref=4 / deblock=1:-3:-3 / analyse=0x3:0x133 / me=umh / subme=11 / psy=1 / psy_rd=1.00:0.00 / mixed_ref=1 / me_range=32 / chroma_me=1 / trellis=2 / 8x8dct=1 / cqm=0 / deadzone=21,11 / fast_pskip=0 / chroma_qp_offset=-2 / threads=6 / lookahead_threads=1 / sliced_threads=0 / nr=0 / decimate=1 / interlaced=0 / bluray_compat=0 / constrained_intra=0 / bframes=8 / b_pyramid=2 / b_adapt=2 / b_bias=0 / direct=3 / weightb=1 / open_gop=0 / weightp=2 / keyint=240 / keyint_min=23 / scenecut=40 / intra_refresh=0 / rc=2pass / mbtree=0 / bitrate=10000 / ratetol=1.0 / qcomp=0.60 / qpmin=0 / qpmax=69 / qpstep=4 / cplxblur=20.0 / qblur=0.5 / ip_ratio=1.40 / pb_ratio=1.30 / aq=2:1.00
Language : English
Default : Yes
Forced : No
Audio
ID : 2
Format : AC-3
Format/Info : Audio Coding 3
Mode extension : CM (complete main)
Codec ID : A_AC3
Duration : 40mn 39s
Bit rate mode : Constant
Bit rate : 640 Kbps
Channel(s) : 6 channels
Channel positions : Front: L C R, Side: L R, LFE
Sampling rate : 48.0 KHz
Bit depth : 16 bits
Compression mode : Lossy
Stream size : 186 MiB (6%)
Language : English
Default : Yes
Forced : No
Text #1
ID : 3
Format : UTF-8
Codec ID : S_TEXT/UTF8
Codec ID/Info : UTF-8 Plain Text
Title : _denis_100
Language : Russian
Default : Yes
Forced : No
Text #2
ID : 4
Format : UTF-8
Codec ID : S_TEXT/UTF8
Codec ID/Info : UTF-8 Plain Text
Title : SDH
Language : English
Default : No
Forced : No
Menu
00:00:00.000 : en:Chapter 01
00:07:05.133 : en:Chapter 02
00:12:47.516 : en:Chapter 03
00:21:27.286 : en:Chapter 04
00:29:21.342 : en:Chapter 05
00:36:37.820 : en:Chapter 06
00:39:18.064 : en:Chapter 07



   Похожие торренты   Торрент   Размер 
В этой теме нет новых непрочитанных сообщений. Остров лемуров: Мадагаскар / Island of Lemurs: Madagascar (2014) BDRip 1080p от Ash61 | 3D-Video | halfOU | Рус.субтитры

84 | 19

6.04 ГБ

В этой теме нет новых непрочитанных сообщений. Остров лемуров: Мадагаскар / Island of Lemurs: Madagascar (2014) BDRip 1080p от Ash61 | 3D-Video | halfOU | Рус.субтитры

38 | 4

5.68 ГБ

В этой теме нет новых непрочитанных сообщений. Остров лемуров: Мадагаскар / Island of Lemurs: Madagascar (2014) HDRip-AVC от MAGNAT231

146 | 6

698.43 МБ

В этой теме нет новых непрочитанных сообщений. Мадагаскар: Трилогия / Madagascar: Тrilogy (2005-2012) BDRip 720p от NNNB

222 | 89

17.08 ГБ

В этой теме нет новых непрочитанных сообщений. Мадагаскар. Зеленые сокровища Красного острова / Madagascar. Green Treasure of the Red island (2014) SATRip от torrentfilm

229 | 37

594.52 МБ

В этой теме нет новых непрочитанных сообщений. Мадагаскар: Ребятам о Зверятах / Madagascar. Island Mania (2007) PC | Лицензия

1141 | 54

290.29 МБ

В этой теме нет новых непрочитанных сообщений. Мадагаскар / Madagascar (2005) BDRip 1080p

219 | 21

4.37 ГБ




Вы не можете начинать темы
Вы не можете отвечать на сообщения
Вы не можете редактировать свои сообщения
Вы не можете удалять свои сообщения
Вы не можете добавлять вложения

Перейти:  
Для Мосгорсуда, Роскомнадзора и рекламодателей: mosgorsud-torrent[собачка]yandex.ru
 Вход
ppkBB3cker v.2 © 2008-2014 @ PPK
[ Time : 0.060s | 15 Queries | GZIP : Off ]

Торрент трекер RUTOR.IN, Не можете зайти на rutor.org? Какой новый адрес рутор? Какое зеркало рутор? Не работает rutor.org и зеркала? Тогда наш торрент специально для вас. Rutor.in неофициальное зеркало rutor. В случае если у Вас заблокирован rutor или вдруг Вы не можете на него зайти, то Вы без труда сможете скачать бесплатно и без рекламы последние новинки кино, игр, сериалов и прочего у нас, на Rutor.in. Не нужно использовать прокси, чтобы зайти на рутор, достаточно воспользоваться нашим ресурсом. Все новые фильмы, игры, сериалы, книги и музыка за 2013 и 2014 годы через торрент бесплатно. Скачивайте фильмы в хорошем качестве, игры для пк, xbox, playstation без регистрации. У нас вы найдете новые Зарубежные сериалы и Русские сериалы 2013, 2014, 2015 годов. Оставайтесь с нами, качайте любимые фильмы, игры, сериалы, книги и музыку.