img image001 image001 image001 image001 image001 image001 image001 image001 image001 image001 image001 image001 image001 image001 image001

Planets Sun Sun Sun
Статистика раздачи
Автор: Nickolas3434 | Размер: 6.04 ГБ | Добавлен: 14 апр 2015
Раздают: 63    Качают: 16
Скачать торрент
Скачать торрент
Описание торрента

СообщениеДобавлено: 14 апр 2015 







Остров лемуров: Мадагаскар
Island of Lemurs: Madagascar



Год выпуска: 2014
Страна: Канада, США, Мадагаскар (IMAX, Warner Bros. Pictures)
Жанр: Документальный, Семейный
Продолжительность: 00:40:39
Перевод: Субтитры
Режиссер: Дэвид Дуглас / David Douglas


В фильме снимались: Морган Фриман (рассказчик), Patricia Wright, Hantanirina Rasamimanana


Описание: Лемуры оказались на острове миллионы лет назад и постепенно эволюционировали в сотни различных видов. Сегодня эти уникальные животные оказались под угрозой исчезновения. Последуйте примеру ученого-новатора Патрисии Райт, которая всю жизнь оказывает помощь лемурам, сохраняя это чудо природы в современном мире.


Премьера: 4 апреля 2014 (24 августа 2014)




Качество: BDRip (by Ash61)
Контейнер: MKV
Формат 3D: Half OverUnder / Вертикальная анаморфная стереопара
Порядок ракурсов: левый ракурс первый


Видео: AVC / 23,976 fps / 1920х1080p / 19.0 Mbps
Аудио: Английский / AC3 / 48 KHz / 5.1 ch / 640 Kbps (Original - BD 3D)
Субтитры (SRT):
Вшитые (softsub):
#1 - Русские Полные (включены по умолчанию) (перевод любительский - Ash61)
#2 - English Full
#3 - English SDH
Внешние (UTF-8):
#1 - Русские Полные (включены по умолчанию) (перевод любительский - Ash61)
General
Unique ID : 222287956459997292743342437531034952582 (0xA73B1A68D81D4E4BB6388BC081D5A386)
Complete name : E:IslandOfLemurs.Madagascar(2014)3D-halfOU(Ash61)Rus.SubsIslandOfLemurs.Madagascar(2014)3D-halfOU(Ash61)Rus.Subs.mkv
Format : Matroska
Format version : Version 2
File size : 5.68 GiB
Duration : 40mn 39s
Overall bit rate : 20.0 Mbps
Movie name : Остров лемуров: Мадагаскар / Island of Lemurs: Madagascar (2014) 3D
Encoded date : UTC 2015-04-06 23:13:14
Writing application : mkvmerge v5.8.0 ('No Sleep / Pillow') built on Sep 2 2012 15:37:04
Writing library : libebml v1.2.3 + libmatroska v1.3.0
Video
ID : 1
Format : AVC
Format/Info : Advanced Video Codec
Format profile : High@L4.1
Format settings, CABAC : Yes
Format settings, ReFrames : 4 frames
Codec ID : V_MPEG4/ISO/AVC
Duration : 40mn 39s
Bit rate : 19.0 Mbps
Width : 1 920 pixels
Height : 1 080 pixels
Display aspect ratio : 16:9
Frame rate mode : Constant
Frame rate : 23.976 fps
Color space : YUV
Chroma subsampling : 4:2:0
Bit depth : 8 bits
Scan type : Progressive
Bits/(Pixel*Frame) : 0.381
Stream size : 5.39 GiB (95%)
Title : BDRip by Ash61
Writing library : x264 core 138 r2358 9e941d1
Encoding settings : cabac=1 / ref=4 / deblock=1:-3:-3 / analyse=0x3:0x113 / me=umh / subme=10 / psy=1 / psy_rd=1.00:0.00 / mixed_ref=1 / me_range=32 / chroma_me=1 / trellis=2 / 8x8dct=1 / cqm=0 / deadzone=21,11 / fast_pskip=1 / chroma_qp_offset=-2 / threads=12 / lookahead_threads=3 / sliced_threads=0 / nr=0 / decimate=1 / interlaced=0 / bluray_compat=0 / constrained_intra=0 / bframes=10 / b_pyramid=2 / b_adapt=2 / b_bias=0 / direct=3 / weightb=1 / open_gop=0 / weightp=2 / keyint=250 / keyint_min=23 / scenecut=40 / intra_refresh=0 / rc_lookahead=60 / rc=crf / mbtree=1 / crf=17.0 / qcomp=0.70 / qpmin=10 / qpmax=69 / qpstep=4 / vbv_maxrate=40000 / vbv_bufsize=30000 / crf_max=0.0 / nal_hrd=none / frame-packing=4 / ip_ratio=1.40 / aq=1:0.70
Language : English
Default : Yes
Forced : No
Audio
ID : 2
Format : AC-3
Format/Info : Audio Coding 3
Mode extension : CM (complete main)
Format settings, Endianness : Big
Codec ID : A_AC3
Duration : 40mn 39s
Bit rate mode : Constant
Bit rate : 640 Kbps
Channel(s) : 6 channels
Channel positions : Front: L C R, Side: L R, LFE
Sampling rate : 48.0 KHz
Bit depth : 16 bits
Compression mode : Lossy
Stream size : 186 MiB (3%)
Title : Original - BD 3D
Language : English
Default : Yes
Forced : No
Text #1
ID : 3
Format : UTF-8
Codec ID : S_TEXT/UTF8
Codec ID/Info : UTF-8 Plain Text
Title : Полные (перевод любительский - Ash61)
Language : Russian
Default : Yes
Forced : No
Text #2
ID : 4
Format : UTF-8
Codec ID : S_TEXT/UTF8
Codec ID/Info : UTF-8 Plain Text
Title : Full
Language : English
Default : No
Forced : No
Text #3
ID : 5
Format : UTF-8
Codec ID : S_TEXT/UTF8
Codec ID/Info : UTF-8 Plain Text
Title : SDH
Language : English
Default : No
Forced : No
Menu
00:00:00.000 : :1
00:07:05.133 : :2
00:12:47.517 : :3
00:21:27.286 : :4
00:29:21.343 : :5
00:36:37.821 : :6
00:39:18.064 : :7


























   Похожие торренты   Торрент   Размер 
В этой теме нет новых непрочитанных сообщений. Остров лемуров: Мадагаскар / Island of Lemurs: Madagascar (2014) BDRip 1080p от Ash61 | 3D-Video | halfOU | Рус.субтитры

38 | 4

5.68 ГБ

В этой теме нет новых непрочитанных сообщений. Остров лемуров: Мадагаскар / Island of Lemurs: Madagascar (2014) BDRip 1080p от NNNB

70 | 14

3.02 ГБ

В этой теме нет новых непрочитанных сообщений. Остров лемуров: Мадагаскар / Island of Lemurs: Madagascar (2014) BDRemux 1080p | P2

0 | 0

6.93 ГБ

В этой теме нет новых непрочитанных сообщений. Остров лемуров: Мадагаскар / Island of Lemurs: Madagascar (2014) HDRip-AVC от MAGNAT231

73 | 8

698.43 МБ

В этой теме нет новых непрочитанных сообщений. Мадагаскар 3D / Madagascar 3D (2013) BDRip 1080p | 3D-Video | halfOU

101 | 5

7.65 ГБ

В этой теме нет новых непрочитанных сообщений. Пингвины Мадагаскара / Penguins of Madagascar (2014) BDRip 1080p от Ash61 | 3D-Video | halfOU

251 | 18

6.98 ГБ

В этой теме нет новых непрочитанных сообщений. Амазония / Amazonia (2013) BDRip 1080p от Ash61 | 3D-Video | halfOU | Субтитры

346 | 149

13.83 ГБ




Вы не можете начинать темы
Вы не можете отвечать на сообщения
Вы не можете редактировать свои сообщения
Вы не можете удалять свои сообщения
Вы не можете добавлять вложения

Перейти:  
 Вход
ppkBB3cker v.2 © 2008-2014 @ PPK
[ Time : 0.390s | 16 Queries | GZIP : Off ]

cron