img image001 image001 image001 image001 image001 image001 image001 image001 image001 image001 image001 image001 image001 image001 image001

Planets Sun Sun Sun
Статистика раздачи
Автор: Nickolas3434 | Размер: 20.49 ГБ | Добавлен: 15 апр 2015
Раздают: 43    Качают: 24
Скачать торрент
Скачать торрент
Описание торрента

СообщениеДобавлено: 15 апр 2015 


Название: История Жизни
Оригинальное название: Life Story
Год выхода: 2014
Жанр: Документальный, флора, фауна
Режиссер: Дэвид Аттенборо
О фильме: История Жизни, рассказанная Дэвидом Аттенборо, переносит нас в величайшее из всех приключений - путешествие по жизни. Любое животное, ведомое инстинктом, озабочено тем, чтобы оставить после себя потомство, передать свои гены последующим поколениям. Быть может для них это своеобразная, связующая нить между прошлым и будущим. Путешествие по бурным водам жизни полно страданий, трудностей и самоотверженности. Порой их поведение непредсказуемо, изысканно утончённо и исполненно нежности. Но несмотря на брошенный ими вызов стихиям природы, они борются и побеждают, передавая свою стойкость характера последующим поколениям. Этот многосерийный фильм об этапах становления в жизни каждого животного.
Страна: Великобритания
Студия: BBC Television Centre
Продолжительность: 6 х ~ 00:58:00
Перевод: Любительский одноголосый
Субтитры: Русские, английские
Кодек: MPEG-4 AVC
Качество: BDRip 720p
Видео: 1280x720, ~ 6500 Кбит/с, 25,000 fps
Звук: Русский (AC3, 6 ch, 640 Кбит/с), английский (DTS, 6 ch, 1509 Кбит/c)
Семпл
1.Первые шаги-First Steps
2.Взросление-Growing Up
3.Дом-Home
4.Власть-Power
5.Ухаживание-Courtship
6.Родители-Parenthood
Общее
Уникальный идентификатор : 197427386689233245219874433532187693176 (0x948721AFAA576B0FB4C6DB1ED468D078)
Полное имя : J:Life.Story.2014.x264.BDRip.(720p)�2.Growing up.mkv
Формат : Matroska
Версия формата : Version 4 / Version 2
Размер файла : 3,21 Гбайт
Продолжительность : 58 м.
Общий поток : 7845 Кбит/сек
Название фильма : BBC: Life Story-Growing Up / 2014 / Rip by PowerRock / ExKinoRay
Дата кодирования : UTC 2015-04-07 11:01:25
Программа кодирования : mkvmerge v7.7.0 ('Six Voices') 64bit built on Feb 28 2015 23:39:33
Библиотека кодирования : libebml v1.3.1 + libmatroska v1.4.2
DURATION : 00:57:55.680000000
NUMBER_OF_FRAMES : 446
NUMBER_OF_BYTES : 18652
_STATISTICS_WRITING_APP : mkvmerge v7.7.0 ('Six Voices') 64bit built on Feb 28 2015 23:39:33
_STATISTICS_WRITING_DATE_UTC : 2015-04-07 11:01:25
_STATISTICS_TAGS : BPS DURATION NUMBER_OF_FRAMES NUMBER_OF_BYTES
Attachment : Yes
Видео
Идентификатор : 1
Формат : AVC
Формат/Информация : Advanced Video Codec
Профиль формата : High@L4.1
Параметр CABAC формата : Да
Параметр ReFrames формата : 10 кадров
Идентификатор кодека : V_MPEG4/ISO/AVC
Продолжительность : 58 м.
Битрейт : 5539 Кбит/сек
Ширина : 1280 пикселей
Высота : 720 пикселей
Соотношение сторон : 16:9
Режим частоты кадров : Постоянный
Частота кадров : 25,000 кадров/сек
Цветовое пространство : YUV
Субдискретизация насыщенности : 4:2:0
Битовая глубина : 8 бит
Тип развёртки : Прогрессивная
Бит/(Пиксели*Кадры) : 0.240
Размер потока : 2,27 Гбайт (71%)
Заголовок : BBC: Life Story-Growing Up / 2014
Библиотека кодирования : x264 core 130 r2273 b3065e6
Настройки программы : cabac=1 / ref=10 / deblock=1:-1:-1 / analyse=0x3:0x133 / me=umh / subme=10 / psy=1 / psy_rd=1.00:0.10 / mixed_ref=1 / me_range=32 / chroma_me=1 / trellis=2 / 8x8dct=1 / cqm=0 / deadzone=21,11 / fast_pskip=0 / chroma_qp_offset=-3 / threads=6 / lookahead_threads=1 / sliced_threads=0 / nr=0 / decimate=1 / interlaced=0 / bluray_compat=0 / constrained_intra=0 / bframes=7 / b_pyramid=2 / b_adapt=2 / b_bias=0 / direct=1 / weightb=1 / open_gop=0 / weightp=2 / keyint=250 / keyint_min=23 / scenecut=40 / intra_refresh=0 / rc_lookahead=50 / rc=crf / mbtree=1 / crf=16.0 / qcomp=0.60 / qpmin=10 / qpmax=51 / qpstep=4 / ip_ratio=1.40 / aq=1:1.00
Default : Да
Forced : Нет
DURATION : 00:58:34.400000000
NUMBER_OF_FRAMES : 87860
NUMBER_OF_BYTES : 2500465584
_STATISTICS_WRITING_APP : mkvmerge v7.7.0 ('Six Voices') 64bit built on Feb 28 2015 23:39:33
_STATISTICS_WRITING_DATE_UTC : 2015-04-07 11:01:25
_STATISTICS_TAGS : BPS DURATION NUMBER_OF_FRAMES NUMBER_OF_BYTES
Аудио #1
Идентификатор : 2
Формат : AC-3
Формат/Информация : Audio Coding 3
Расширение режима : CM (complete main)
Параметр Endianness формата : Big
Идентификатор кодека : A_AC3
Продолжительность : 58 м.
Вид битрейта : Постоянный
Битрейт : 640 Кбит/сек
Каналы : 6 каналов
Расположение каналов : Front: L C R, Side: L R, LFE
Частота : 48,0 КГц
Битовая глубина : 16 бит
Метод сжатия : С потерями
Размер потока : 268 Мбайт (8%)
Язык : Russian
Default : Да
Forced : Нет
Аудио #2
Идентификатор : 3
Формат : DTS
Формат/Информация : Digital Theater Systems
Режим : 16
Параметр Endianness формата : Big
Идентификатор кодека : A_DTS
Продолжительность : 58 м.
Вид битрейта : Постоянный
Битрейт : 1509 Кбит/сек
Каналы : 6 каналов
Расположение каналов : Front: L C R, Side: L R, LFE
Частота : 48,0 КГц
Битовая глубина : 16 бит
Метод сжатия : С потерями
Размер потока : 632 Мбайт (19%)
Язык : English
Default : Нет
Forced : Нет
Текст #1
Идентификатор : 4
Формат : UTF-8
Идентификатор кодека : S_TEXT/UTF8
Идентификатор кодека/Информация : UTF-8 Plain Text
Заголовок : Burn in The USSR
Язык : Russian
Default : Да
Forced : Нет
Текст #2
Идентификатор : 5
Формат : UTF-8
Идентификатор кодека : S_TEXT/UTF8
Идентификатор кодека/Информация : UTF-8 Plain Text
Заголовок : Logos71
Язык : Russian
Default : Нет
Forced : Нет
Текст #3
Идентификатор : 6
Формат : UTF-8
Идентификатор кодека : S_TEXT/UTF8
Идентификатор кодека/Информация : UTF-8 Plain Text
Язык : English
Default : Нет
Forced : Нет
Меню
00:00:00.000 : en:00:00:00.000
00:06:27.240 : en:00:06:27.240
00:16:47.120 : en:00:16:47.120
00:24:44.240 : en:00:24:44.240
00:36:47.680 : en:00:36:47.680
00:43:08.560 : en:00:43:08.560
00:48:43.160 : en:00:48:43.160




ЦитатаКто-то писал:
1-3 серии-Одноголосый (закадровый)-Ю. Онищенко (Logos71)
1-6 серии-субтитры (Burn in The USSR)
Субтитры: русские (Burn in The USSR), русские (Logos71), английские
Релиз от:



   Похожие торренты   Торрент   Размер 
В этой теме нет новых непрочитанных сообщений. BBC. История Жизни / Life Story [01-06] (2014) BDRip 720p от ExKinoRay

140 | 66

21.74 ГБ

В этой теме нет новых непрочитанных сообщений. BBC. История Жизни / Life Story [01-06] (2014) BDRip 720p от ExKinoRay

62 | 84

20.75 ГБ

В этой теме нет новых непрочитанных сообщений. BBC. История Жизни / Life Story [01-06] (2014) BDRip от ExKinoRay | D, P2

43 | 8

5.59 ГБ

В этой теме нет новых непрочитанных сообщений. Срок жизни / Term Life (2016) BDRip 720p от ExKinoRay | L

136 | 7

5.92 ГБ

В этой теме нет новых непрочитанных сообщений. Срок жизни / Term Life (2016) BDRip 720p HEVC от ExKinoRay | L

41 | 1

6.21 ГБ

В этой теме нет новых непрочитанных сообщений. Дракон: История жизни Брюса Ли / Dragon: The Bruce Lee Story (1993) BDRip от Generalfilm

149 | 15

2.18 ГБ

В этой теме нет новых непрочитанных сообщений. Книга жизни / The Book of Life (2014) BDRip 720p | L

850 | 99

4.54 ГБ




Вы не можете начинать темы
Вы не можете отвечать на сообщения
Вы не можете редактировать свои сообщения
Вы не можете удалять свои сообщения
Вы не можете добавлять вложения

Перейти:  
Для Мосгорсуда, Роскомнадзора и рекламодателей: mosgorsud-torrent[собачка]yandex.ru
 Вход
ppkBB3cker v.2 © 2008-2014 @ PPK
[ Time : 0.020s | 16 Queries | GZIP : Off ]

Торрент трекер RUTOR.IN, Не можете зайти на rutor.org? Какой новый адрес рутор? Какое зеркало рутор? Не работает rutor.org и зеркала? Тогда наш торрент специально для вас. Rutor.in неофициальное зеркало rutor. В случае если у Вас заблокирован rutor или вдруг Вы не можете на него зайти, то Вы без труда сможете скачать бесплатно и без рекламы последние новинки кино, игр, сериалов и прочего у нас, на Rutor.in. Не нужно использовать прокси, чтобы зайти на рутор, достаточно воспользоваться нашим ресурсом. Все новые фильмы, игры, сериалы, книги и музыка за 2013 и 2014 годы через торрент бесплатно. Скачивайте фильмы в хорошем качестве, игры для пк, xbox, playstation без регистрации. У нас вы найдете новые Зарубежные сериалы и Русские сериалы 2013, 2014, 2015 годов. Оставайтесь с нами, качайте любимые фильмы, игры, сериалы, книги и музыку.