img image001 image001 image001 image001 image001 image001 image001 image001 image001 image001 image001 image001 image001 image001 image001

Planets Sun Sun Sun
Статистика раздачи
Автор: Nickolas3434 | Размер: 2.18 ГБ | Добавлен: 18 апр 2015
Раздают: 43    Качают: 17
Скачать торрент
Скачать торрент
Описание торрента

СообщениеДобавлено: 18 апр 2015 

Дети снегов / Snow Babies

Русское название: Дети снегов
Оригинальное название: Snow Babies
Год выпуска: 2012
Жанр: документальный
Выпущено: Великобритания
Перевод: Дублированный, Авторский (одноголосый)

Сюжет фильма:
Эта история об особой группе детенышей животных, родившихся в самых холодных и негостеприимных местах на Земле. Мы проследим за взлетами и падениями отважных детенышей императорских пингвинов, снежных обезьян, белых медведей, песцов, северных оленей и выясним, что нужно, чтобы выжить в первый год жизни в мире снега и льда, с минимальной помощью от семьи и друзей.

Качество: BDRip 720p
Формат: AVC (библиотека кодирования x.264)
Контейнер (Расширение): MKV
Видео: 1280x720 (16:9), 4300 Кбит/сек, 23,976 кадр/сек, 0,195 Бит/[Пиксели*Кадры]
Аудио №1: русский / AC3 / 2.0 / 48 kHz / 192 kbps / |Дублированный - Видеофильм ТВ|
Аудио №2: русский / AC3 / 5.1 / 48 kHz / 640 kbps / |Авторский, Д. Есарев|
Аудио №3: английский / AC3 / 2.0 / 48 kHz / 640 kbps /
Субтитры: английские
Навигация по главам(Чаптеры): есть
Продолжительность: 00:54:06
Автор рипа: Сообщество:

Format : Matroska
Format version : Version 2
File size : 2.18 GiB
Duration : 54mn 6s
Overall bit rate : 5 775 Kbps
Movie name : Deti snegov.(2012).BDRip.720p.[denis100]
Encoded date : UTC 2015-04-17 09:29:31
Writing application : mkvmerge v5.8.0 ('No Sleep / Pillow') built on Sep 2 2012 15:37:04
Writing library : libebml v1.2.3 + libmatroska v1.3.0
Video
ID : 1
Format : AVC
Format/Info : Advanced Video Codec
Format profile : High@L4.1
Format settings, CABAC : Yes
Format settings, ReFrames : 9 frames
Codec ID : V_MPEG4/ISO/AVC
Duration : 54mn 6s
Bit rate : 4 300 Kbps
Width : 1 280 pixels
Height : 720 pixels
Display aspect ratio : 16:9
Frame rate : 23.976 fps
Color space : YUV
Chroma subsampling : 4:2:0
Bit depth : 8 bits
Scan type : Progressive
Bits/(Pixel*Frame) : 0.195
Stream size : 1.58 GiB (73%)
Title : Deti snegov.(2012).BDRip.720p.[denis100]
Writing library : x264 core 146 r2538 121396c
Encoding settings : cabac=1 / ref=9 / deblock=1:-3:-3 / analyse=0x3:0x133 / me=umh / subme=11 / psy=1 / psy_rd=1.00:0.00 / mixed_ref=1 / me_range=48 / chroma_me=1 / trellis=2 / 8x8dct=1 / cqm=0 / deadzone=21,11 / fast_pskip=0 / chroma_qp_offset=-2 / threads=6 / lookahead_threads=1 / sliced_threads=0 / nr=0 / decimate=1 / interlaced=0 / bluray_compat=0 / constrained_intra=0 / bframes=9 / b_pyramid=2 / b_adapt=2 / b_bias=0 / direct=3 / weightb=1 / open_gop=0 / weightp=2 / keyint=240 / keyint_min=23 / scenecut=40 / intra_refresh=0 / rc=2pass / mbtree=0 / bitrate=4300 / ratetol=1.0 / qcomp=0.60 / qpmin=0 / qpmax=69 / qpstep=4 / cplxblur=20.0 / qblur=0.5 / ip_ratio=1.40 / pb_ratio=1.30 / aq=1:1.00
Language : English
Default : Yes
Forced : No
Audio #1
ID : 2
Format : AC-3
Format/Info : Audio Coding 3
Mode extension : CM (complete main)
Codec ID : A_AC3
Duration : 54mn 6s
Bit rate mode : Constant
Bit rate : 192 Kbps
Channel(s) : 2 channels
Channel positions : Front: L R
Sampling rate : 48.0 KHz
Bit depth : 16 bits
Compression mode : Lossy
Stream size : 74.3 MiB (3%)
Title : дублированный - Видеофильм ТВ
Language : Russian
Default : Yes
Forced : No
Audio #2
ID : 3
Format : AC-3
Format/Info : Audio Coding 3
Mode extension : CM (complete main)
Codec ID : A_AC3
Duration : 54mn 6s
Bit rate mode : Constant
Bit rate : 640 Kbps
Channel(s) : 6 channels
Channel positions : Front: L C R, Side: L R, LFE
Sampling rate : 48.0 KHz
Bit depth : 16 bits
Compression mode : Lossy
Stream size : 248 MiB (11%)
Title : Авторский, Д. Есарев
Language : Russian
Default : No
Forced : No
Audio #3
ID : 4
Format : AC-3
Format/Info : Audio Coding 3
Mode extension : CM (complete main)
Codec ID : A_AC3
Duration : 54mn 6s
Bit rate mode : Constant
Bit rate : 640 Kbps
Channel(s) : 2 channels
Channel positions : Front: L R
Sampling rate : 48.0 KHz
Bit depth : 16 bits
Compression mode : Lossy
Stream size : 248 MiB (11%)
Language : English
Default : No
Forced : No
Text
ID : 5
Format : UTF-8
Codec ID : S_TEXT/UTF8
Codec ID/Info : UTF-8 Plain Text
Language : English
Default : No
Forced : No
Menu
00:00:00.000 : en:
00:01:19.077 : en:
00:06:51.910 : en:
00:12:33.335 : en:
00:16:57.349 : en:
00:19:32.796 : en:
00:25:12.594 : en:
00:29:24.094 : en:
00:34:07.210 : en:
00:36:44.827 : en:
00:41:26.692 : en:
00:46:55.813 : en:
00:53:30.206 : en:



   Похожие торренты   Торрент   Размер 
В этой теме нет новых непрочитанных сообщений. Дети снегов / Snow Babies (2012) BDRip-AVC от ExKinoRay | P

6 | 2

829.08 МБ

В этой теме нет новых непрочитанных сообщений. Дети воды / The Water Babies (1978) DVDRip

35 | 12

1.19 ГБ

В этой теме нет новых непрочитанных сообщений. Дети шпионов / Spy Kids (2001) BDRip 1080p от NNNB

23 | 8

7.75 ГБ

В этой теме нет новых непрочитанных сообщений. Белоснежка и принц эльфов / Grimm's Snow White (2012) BDRip 720p | P

49 | 6

3.76 ГБ

В этой теме нет новых непрочитанных сообщений. Белоснежка и охотник / Snow White and the Huntsman (2012) BDRip 720p | Лицензия

157 | 17

5.92 ГБ

В этой теме нет новых непрочитанных сообщений. Белоснежка и охотник / Snow White and the Huntsman (2012) BDRip 720p от HQ-ViDEO | Extended Cut

257 | 10

6.99 ГБ

В этой теме нет новых непрочитанных сообщений. Белоснежка и охотник / Snow White and the Huntsman (2012) BDRip 720p | D | Расширенная версия

292 | 9

4.37 ГБ




Вы не можете начинать темы
Вы не можете отвечать на сообщения
Вы не можете редактировать свои сообщения
Вы не можете удалять свои сообщения
Вы не можете добавлять вложения

Перейти:  
Для Мосгорсуда, Роскомнадзора и рекламодателей: mosgorsud-torrent[собачка]yandex.ru
 Вход
ppkBB3cker v.2 © 2008-2014 @ PPK
[ Time : 0.033s | 15 Queries | GZIP : On ]

Торрент трекер RUTOR.IN, Не можете зайти на rutor.org? Какой новый адрес рутор? Какое зеркало рутор? Не работает rutor.org и зеркала? Тогда наш торрент специально для вас. Rutor.in неофициальное зеркало rutor. В случае если у Вас заблокирован rutor или вдруг Вы не можете на него зайти, то Вы без труда сможете скачать бесплатно и без рекламы последние новинки кино, игр, сериалов и прочего у нас, на Rutor.in. Не нужно использовать прокси, чтобы зайти на рутор, достаточно воспользоваться нашим ресурсом. Все новые фильмы, игры, сериалы, книги и музыка за 2013 и 2014 годы через торрент бесплатно. Скачивайте фильмы в хорошем качестве, игры для пк, xbox, playstation без регистрации. У нас вы найдете новые Зарубежные сериалы и Русские сериалы 2013, 2014, 2015 годов. Оставайтесь с нами, качайте любимые фильмы, игры, сериалы, книги и музыку.