img image001 image001 image001 image001 image001 image001 image001 image001 image001 image001 image001 image001 image001 image001 image001

Planets Sun Sun Sun
Статистика раздачи
Автор: Nickolas3434 | Размер: 1.21 ГБ | Добавлен: 20 апр 2015
Раздают: 228    Качают: 24
Скачать торрент
Скачать торрент
Описание торрента

СообщениеДобавлено: 20 апр 2015 


Информация о фильме
Название: Легенды старой Праги
Год выхода: 2006
Жанр: Видеоэкскурсия
О фильме:
Прага - это не просто город. Это эпизоды времени, страницы истории, мгновения жизни, биографии, легенды, предания. Они живут здесь в домовых знаках, в старых фонарях, в таинственных уголках, на Улочке алхимиков... Очарованный Прагой, бродя по ее улицам, с изумлением открываешь все новые и новые детали, новые штрихи к ее портрету. Вышеградский холм помнит историю основания города и легенды, с этим событием связанные. Старинный центр Праги - Пражский град расскажет о традициях королевской династии. Знаки на домах, расположенных в районе Старого Света и Градчан, поведают о деятельности тайных обществ. Два университета города, Каролинум и Клементинум, - о том, как развивалась научная мысль в Чехии.
Страна: Россия
Продолжительность: 00:55:10
Файл
Кодек: H.264
Качество: DVDRip.AVC
Видео: AVC, 720x576 @768x576 (4:3), 2750 kbps, 50 fps
Звук:
1. AC3, 48 kHz, 6 ch, 192 kbps (Rus)
2. AC3, 48 kHz, 6 ch, 192 kbps (Eng)
Семпл: Скачать, Зеркало







Общее
Уникальный идентификатор : 218044117134841276204201609681555160501 (0xA409C4F9F00E1FDEB3E1615BED8FFDB5)
Полное имя : Легенды старой ПрагиLegendi.staroy.Pragi.2006.DVDRip.x264.576p.mkv
Формат : Matroska
Версия формата : Version 2
Размер файла : 1,21 Гбайт
Продолжительность : 55 м.
Общий поток : 3136 Кбит/сек
Дата кодирования : UTC 2012-11-01 12:49:30
Программа кодирования : mkvmerge v5.8.0 ('No Sleep / Pillow') built on Sep 2 2012 15:37:04
Библиотека кодирования : libebml v1.2.3 + libmatroska v1.3.0
Видео
Идентификатор : 1
Формат : AVC
Формат/Информация : Advanced Video Codec
Профиль формата : High@L3.1
Параметр CABAC формата : Да
Параметр ReFrames формата : 4 кадра
Идентификатор кодека : V_MPEG4/ISO/AVC
Битрейт : 2750 Кбит/сек
Ширина : 720 пикселей
Высота : 576 пикселей
Соотношение сторон : 4:3
Соотношение сторон в оригинале : 4:3
Режим частоты кадров : Переменный
Частота кадров в оригинале : 50,000 кадров/сек
Стандарт вещания : PAL
Цветовое пространство : YUV
Субдискретизация насыщенности : 4:2:0
Битовая глубина : 8 бит
Тип развёртки : Прогрессивная
Бит/(Пиксели*Кадры) : 0.133
Заголовок : H264; 720x576 (4:3); 50 fps; 2750 kbps
Библиотека кодирования : x264 core 125 r2200bm 999b753
Настройки программы : cabac=1 / ref=3 / deblock=1:0:0 / analyse=0x3:0x113 / me=hex / subme=7 / psy=1 / psy_rd=1.00:0.00 / mixed_ref=1 / me_range=16 / chroma_me=1 / trellis=1 / 8x8dct=1 / cqm=0 / deadzone=21,11 / fast_pskip=1 / chroma_qp_offset=-2 / threads=12 / lookahead_threads=2 / sliced_threads=0 / nr=0 / decimate=1 / interlaced=0 / bluray_compat=0 / constrained_intra=0 / bframes=3 / b_pyramid=2 / b_adapt=1 / b_bias=0 / direct=1 / weightb=1 / open_gop=0 / weightp=2 / keyint=250 / keyint_min=25 / scenecut=40 / intra_refresh=0 / rc_lookahead=40 / rc=2pass / mbtree=1 / bitrate=2750 / ratetol=1.0 / qcomp=0.60 / qpmin=0 / qpmax=69 / qpstep=4 / cplxblur=20.0 / qblur=0.5 / ip_ratio=1.40 / aq=1:1.00
Default : Да
Forced : Нет
Аудио #1
Идентификатор : 2
Формат : AC-3
Формат/Информация : Audio Coding 3
Расширение режима : CM (complete main)
Параметр Endianness формата : Big
Идентификатор кодека : A_AC3
Продолжительность : 55 м.
Вид битрейта : Постоянный
Битрейт : 192 Кбит/сек
Каналы : 2 канала
Расположение каналов : Front: L R
Частота : 48,0 КГц
Битовая глубина : 16 бит
Метод сжатия : С потерями
Размер потока : 75,8 Мбайт (6%)
Заголовок : AC3; 48 kHz; 6 ch; 192 kbps
Язык : Russian
Default : Да
Forced : Нет
Аудио #2
Идентификатор : 3
Формат : AC-3
Формат/Информация : Audio Coding 3
Расширение режима : CM (complete main)
Параметр Endianness формата : Big
Идентификатор кодека : A_AC3
Продолжительность : 55 м.
Вид битрейта : Постоянный
Битрейт : 192 Кбит/сек
Каналы : 2 канала
Расположение каналов : Front: L R
Частота : 48,0 КГц
Битовая глубина : 16 бит
Метод сжатия : С потерями
Размер потока : 75,8 Мбайт (6%)
Заголовок : AC3; 48 kHz; 6 ch; 192 kbps
Язык : English
Default : Нет
Forced : Нет

Релиз от:



   Похожие торренты   Торрент   Размер 
В этой теме нет новых непрочитанных сообщений. Веселая коза: Легенды старой Праги / Kozí příběh - Pověsti staré Prahy (2008) BDRip 1080p от Freeisland

2 | 2

4.37 ГБ

В этой теме нет новых непрочитанных сообщений. Соколово / Sokolovo ; Освобождение Праги / Osvobozeni Prahy (1974 / 1976) DVDRip

15 | 9

3.8 ГБ

В этой теме нет новых непрочитанных сообщений. В Мае 45-го. Освобождение Праги (2015) HDTVRip 720p

122 | 4

1.33 ГБ

В этой теме нет новых непрочитанных сообщений. В мае 45-го. Освобождение Праги (2015) HDTVRip от Generalfilm

148 | 10

563.58 МБ

В этой теме нет новых непрочитанных сообщений. В мае 45-го. Освобождение Праги (2015) HDTV 1080i от Generalfilm

72 | 6

2.03 ГБ

В этой теме нет новых непрочитанных сообщений. Энергия Великой Победы Праги (2015) HDTV 1080i от Generalfilm

83 | 10

1.62 ГБ

В этой теме нет новых непрочитанных сообщений. Корсары: Возвращение легенды (2007) PC

168 | 38

4.27 ГБ




Вы не можете начинать темы
Вы не можете отвечать на сообщения
Вы не можете редактировать свои сообщения
Вы не можете удалять свои сообщения
Вы не можете добавлять вложения

Перейти:  
Для Мосгорсуда, Роскомнадзора и рекламодателей: mosgorsud-torrent[собачка]yandex.ru
 Вход
ppkBB3cker v.2 © 2008-2014 @ PPK
[ Time : 1.867s | 14 Queries | GZIP : Off ]

Торрент трекер RUTOR.IN, Не можете зайти на rutor.org? Какой новый адрес рутор? Какое зеркало рутор? Не работает rutor.org и зеркала? Тогда наш торрент специально для вас. Rutor.in неофициальное зеркало rutor. В случае если у Вас заблокирован rutor или вдруг Вы не можете на него зайти, то Вы без труда сможете скачать бесплатно и без рекламы последние новинки кино, игр, сериалов и прочего у нас, на Rutor.in. Не нужно использовать прокси, чтобы зайти на рутор, достаточно воспользоваться нашим ресурсом. Все новые фильмы, игры, сериалы, книги и музыка за 2013 и 2014 годы через торрент бесплатно. Скачивайте фильмы в хорошем качестве, игры для пк, xbox, playstation без регистрации. У нас вы найдете новые Зарубежные сериалы и Русские сериалы 2013, 2014, 2015 годов. Оставайтесь с нами, качайте любимые фильмы, игры, сериалы, книги и музыку.