img image001 image001 image001 image001 image001 image001 image001 image001 image001 image001 image001 image001 image001 image001 image001

Planets Sun Sun Sun
Статистика раздачи
Автор: Nickolas3434 | Размер: 6.42 ГБ | Добавлен: 03 май 2015
Раздают: 136    Качают: 95
Скачать торрент
Скачать торрент
Описание торрента

СообщениеДобавлено: 03 май 2015 


Название: Живые пейзажи: Бали
Оригинальное название: Living Landscapes: Bali
Год выпуска: 2006
Страна: США
Жанр: документальный
Продолжительность: 00:48:06
Перевод: не требуется
Режиссёр: Майкл Хьюман
Описание: Танцы. Перенесите экзотические виды и звуки райского острова Бали в ваше окружение с помощью звуков природы и красивой балийской музыки. Водяные храмы. Почувствуйте волшебство водяных храмов острова Бали; эти священные источники снабжают 10000 галлонами воды в минуту с помощью древних водоёмов, украшенных затейливыми фонтанами, резными орнаментами и статуями. Мир живой природы. Понаблюдайте за стрекозами, птицами, бабочками и лягушками среди красивых тропических цветов. Крупный план высокой чёткости открывает мир живой природы острова Бали и замысловатую красоту самой прекрасной живой сокровищницы природы. Священные места. Посетите храм матери Безаки. Впитайте в себя спокойствие храма Тана Лот, посвящённого океану. Примите участие в священных таинствах, которые делают остров Бали одним из самых живописных мест на Земле.
Качество: BDRip 1080p Сравнение с исходником
Формат: MKV
Видео: MPEG-4 AVC, 17.2 Mбит/с, 1920x1080, 29,970 кадра/с
Аудио: музыка, DTS, 1509 kbps, 6 ch, 48 kHz
frame I:304 Avg QP:17.48 size:269908
frame P:15050 Avg QP:18.39 size:139507
frame B:71155 Avg QP:20.95 size: 58554
Общее
Уникальный идентификатор : 232227679795339933347724100414710857162 (0xAEB56C9B362DA794B12101A44D39BDCA)
Полное имя : D:VideoЖивые пейзажи.Бали.2006.BDRip.1080p.mkv
Формат : Matroska
Версия формата : Version 4 / Version 2
Размер файла : 6,42 Гбайт
Продолжительность : 48 м.
Общий поток : 19,1 Мбит/сек
Название фильма : BDRip -- STarankov
Дата кодирования : UTC 2015-05-01 02:23:38
Программа кодирования : mkvmerge v7.8.0 ('River Man') 64bit built on Mar 27 2015 16:31:37
Библиотека кодирования : libebml v1.3.1 + libmatroska v1.4.2
DURATION : 00:48:06.539000000
NUMBER_OF_FRAMES : 270613
NUMBER_OF_BYTES : 544473440
_STATISTICS_WRITING_APP : mkvmerge v7.8.0 ('River Man') 64bit built on Mar 27 2015 16:31:37
_STATISTICS_WRITING_DATE_UTC : 2015-05-01 02:23:38
_STATISTICS_TAGS : BPS DURATION NUMBER_OF_FRAMES NUMBER_OF_BYTES
Видео
Идентификатор : 1
Формат : AVC
Формат/Информация : Advanced Video Codec
Профиль формата : High@L4.1
Параметр CABAC формата : Да
Параметр ReFrames формата : 4 кадра
Идентификатор кодека : V_MPEG4/ISO/AVC
Продолжительность : 48 м.
Битрейт : 17,2 Мбит/сек
Ширина : 1920 пикселей
Высота : 1080 пикселей
Соотношение сторон : 16:9
Режим частоты кадров : Постоянный
Частота кадров : 29,970 кадров/сек
Цветовое пространство : YUV
Субдискретизация насыщенности : 4:2:0
Битовая глубина : 8 бит
Тип развёртки : Прогрессивная
Бит/(Пиксели*Кадры) : 0.277
Размер потока : 5,79 Гбайт (90%)
Библиотека кодирования : x264 core 146 r2538 121396c
Настройки программы : cabac=1 / ref=4 / deblock=1:-1:-1 / analyse=0x3:0x113 / me=umh / subme=10 / psy=1 / psy_rd=1.00:0.15 / mixed_ref=1 / me_range=32 / chroma_me=1 / trellis=2 / 8x8dct=1 / cqm=0 / deadzone=21,11 / fast_pskip=1 / chroma_qp_offset=-3 / threads=6 / lookahead_threads=1 / sliced_threads=0 / nr=0 / decimate=1 / interlaced=0 / bluray_compat=0 / constrained_intra=0 / bframes=8 / b_pyramid=2 / b_adapt=2 / b_bias=0 / direct=1 / weightb=1 / open_gop=0 / weightp=2 / keyint=288 / keyint_min=28 / scenecut=40 / intra_refresh=0 / rc_lookahead=40 / rc=crf / mbtree=0 / crf=17.0 / qcomp=0.60 / qpmin=0 / qpmax=69 / qpstep=4 / vbv_maxrate=40000 / vbv_bufsize=50000 / crf_max=0.0 / nal_hrd=none / filler=0 / ip_ratio=1.40 / pb_ratio=1.30 / aq=1:1.00
Язык : English
Default : Да
Forced : Нет
DURATION : 00:48:06.517000000
NUMBER_OF_FRAMES : 86509
NUMBER_OF_BYTES : 6348047988
_STATISTICS_WRITING_APP : mkvmerge v7.8.0 ('River Man') 64bit built on Mar 27 2015 16:31:37
_STATISTICS_WRITING_DATE_UTC : 2015-05-01 02:23:38
_STATISTICS_TAGS : BPS DURATION NUMBER_OF_FRAMES NUMBER_OF_BYTES
Аудио
Идентификатор : 2
Формат : DTS
Формат/Информация : Digital Theater Systems
Режим : 16
Параметр Endianness формата : Big
Идентификатор кодека : A_DTS
Продолжительность : 48 м.
Вид битрейта : Постоянный
Битрейт : 1509 Кбит/сек
Каналы : 6 каналов
Расположение каналов : Front: L C R, Side: L R, LFE
Частота : 48,0 КГц
Битовая глубина : 16 бит
Метод сжатия : С потерями
Размер потока : 519 Мбайт (8%)
Заголовок : Music
Default : Да
Forced : Нет





   Похожие торренты   Торрент   Размер 
В этой теме нет новых непрочитанных сообщений. Живые Пейзажи: (Бали) / Living Landscapes: Bali (2006) BDRip AVC

218 | 47

1.43 ГБ

В этой теме нет новых непрочитанных сообщений. Живые пейзажи: Бали / Living Landscapes: Bali (2006) BDRip 720p

55 | 24

2.34 ГБ

В этой теме нет новых непрочитанных сообщений. Живые Пейзажи: Бали / Living Landscapes: Bali (2008) BDRip от HELLYWOOD

2 | 3

894.79 МБ

В этой теме нет новых непрочитанных сообщений. Живые пейзажи. Подводный мир Гавайи / Living Landscapes. Underwater Paradise Hawaii (2009) BDRip 1080p от FREEISLAND

46 | 5

4.37 ГБ

В этой теме нет новых непрочитанных сообщений. Живые пейзажи: Дзен сад / Living Landscapes: Zen Garden (2010) BDRip 720p

12 | 3

2.09 ГБ

В этой теме нет новых непрочитанных сообщений. Живые Пейзажи: Сад камней / Living Landscapes: Zen Garden (2007) BDRip от HELLYWOOD

6 | 4

892.55 МБ

В этой теме нет новых непрочитанных сообщений. Живые Пейзажи: Калифорнийские секвойи / Living Landscapes: California Redwoods (2008) BDRip

3 | 3

1.17 ГБ




Вы не можете начинать темы
Вы не можете отвечать на сообщения
Вы не можете редактировать свои сообщения
Вы не можете удалять свои сообщения
Вы не можете добавлять вложения

Перейти:  
Для Мосгорсуда, Роскомнадзора и рекламодателей: mosgorsud-torrent[собачка]yandex.ru
 Вход
ppkBB3cker v.2 © 2008-2014 @ PPK
[ Time : 0.032s | 15 Queries | GZIP : Off ]

Торрент трекер RUTOR.IN, Не можете зайти на rutor.org? Какой новый адрес рутор? Какое зеркало рутор? Не работает rutor.org и зеркала? Тогда наш торрент специально для вас. Rutor.in неофициальное зеркало rutor. В случае если у Вас заблокирован rutor или вдруг Вы не можете на него зайти, то Вы без труда сможете скачать бесплатно и без рекламы последние новинки кино, игр, сериалов и прочего у нас, на Rutor.in. Не нужно использовать прокси, чтобы зайти на рутор, достаточно воспользоваться нашим ресурсом. Все новые фильмы, игры, сериалы, книги и музыка за 2013 и 2014 годы через торрент бесплатно. Скачивайте фильмы в хорошем качестве, игры для пк, xbox, playstation без регистрации. У нас вы найдете новые Зарубежные сериалы и Русские сериалы 2013, 2014, 2015 годов. Оставайтесь с нами, качайте любимые фильмы, игры, сериалы, книги и музыку.