img image001 image001 image001 image001 image001 image001 image001 image001 image001 image001 image001 image001 image001 image001 image001

Planets Sun Sun Sun
Статистика раздачи
Автор: Nickolas3434 | Размер: 3.5 ГБ | Добавлен: 06 май 2015
Раздают: 125    Качают: 22
Скачать торрент
Скачать торрент
Описание торрента

СообщениеДобавлено: 06 май 2015 


Название: Золото Рейна - лица одной реки
Оригинальное название: Rheingold: Gesichter eines Flusses
Год выпуска: 2014
Страна: Германия
Жанр: документальный
Продолжительность: 01:30:56
Перевод: профессиональный двухголосый
Режиссёр: Питер Бардель
В ролях: Бен Бекер, Анне Мол
Описание: Рейн - центр европейской души. Крупнейшая и наиболее важная река Европы. На протяжении тысяч лет на своём пути от Альп до Северного моря он формирует уникальные культурные ландшафты, в которых люди и природа взаимно влияли друг на друга. От массива Готтхард к морю Рейн пересекает шесть стран: Швейцарию, Австрию, Лихтенштейн, Германию, Францию и Нидерланды. На протяжении веков Рейн разделял немцев в Германии и Франции. На протяжении почти 70 лет он связывает эти две страны. Люксембург, Бельгия и Италия также находятся под его влиянием. Съёмки следуют по маршруту реки исключительно с высоты птичьего полета и представляют увлекательные панорамы центральной Европы, которые раскрываются в полную силу на большом экране...
Качество: BDRip 720p Сравнение с исходником
Формат: MKV
Видео: MPEG-4 AVC, 4510 Кбит/с, 1280x720, 25 кадра/с
Аудио 1: русский, AC3, 448 kbps, 6 ch, 48 kHz [профессиональный двухголосый]
Аудио 2: немецкий, AC3, 448 kbps, 6 ch, 48 kHz [оригинал]
Субтитры: русские
frame I:761 Avg QP:19.69 size:158276
frame P:29571 Avg QP:21.07 size: 55356
frame B:106076 Avg QP:23.79 size: 13124
Общее
Уникальный идентификатор : 174501086014905907911711076813289675845 (0x8347AFCACFF2709CA4A1C17AE6E1DC45)
Полное имя : D:VideoЗолото Рейна.2014.BDRip.720p.mkv
Формат : Matroska
Версия формата : Version 4 / Version 2
Размер файла : 3,50 Гбайт
Продолжительность : 1 ч. 30 м.
Общий поток : 5516 Кбит/сек
Название фильма : BDRip -- STarankov
Дата кодирования : UTC 2015-05-04 16:23:40
Программа кодирования : mkvmerge v7.8.0 ('River Man') 64bit built on Mar 27 2015 16:31:37
Библиотека кодирования : libebml v1.3.1 + libmatroska v1.4.2
_STATISTICS_WRITING_APP : mkvmerge v7.8.0 ('River Man') 64bit built on Mar 27 2015 16:31:37
_STATISTICS_WRITING_DATE_UTC : 2015-05-04 16:23:40
_STATISTICS_TAGS : BPS DURATION NUMBER_OF_FRAMES NUMBER_OF_BYTES
DURATION : 01:29:05.519000000
NUMBER_OF_FRAMES : 734
NUMBER_OF_BYTES : 46746
Видео
Идентификатор : 1
Формат : AVC
Формат/Информация : Advanced Video Codec
Профиль формата : High@L4.1
Параметр CABAC формата : Да
Параметр ReFrames формата : 9 кадров
Идентификатор кодека : V_MPEG4/ISO/AVC
Продолжительность : 1 ч. 30 м.
Битрейт : 4510 Кбит/сек
Ширина : 1280 пикселей
Высота : 720 пикселей
Соотношение сторон : 16:9
Режим частоты кадров : Постоянный
Частота кадров : 25,000 кадров/сек
Цветовое пространство : YUV
Субдискретизация насыщенности : 4:2:0
Битовая глубина : 8 бит
Тип развёртки : Прогрессивная
Бит/(Пиксели*Кадры) : 0.196
Размер потока : 2,86 Гбайт (82%)
Библиотека кодирования : x264 core 146 r2538 121396c
Настройки программы : cabac=1 / ref=9 / deblock=1:-1:-1 / analyse=0x3:0x113 / me=umh / subme=10 / psy=1 / psy_rd=1.00:0.15 / mixed_ref=1 / me_range=32 / chroma_me=1 / trellis=2 / 8x8dct=1 / cqm=0 / deadzone=21,11 / fast_pskip=1 / chroma_qp_offset=-3 / threads=6 / lookahead_threads=1 / sliced_threads=0 / nr=0 / decimate=1 / interlaced=0 / bluray_compat=0 / constrained_intra=0 / bframes=8 / b_pyramid=2 / b_adapt=2 / b_bias=0 / direct=1 / weightb=1 / open_gop=0 / weightp=2 / keyint=240 / keyint_min=24 / scenecut=40 / intra_refresh=0 / rc_lookahead=40 / rc=crf / mbtree=0 / crf=19.0 / qcomp=0.60 / qpmin=0 / qpmax=69 / qpstep=4 / vbv_maxrate=40000 / vbv_bufsize=50000 / crf_max=0.0 / nal_hrd=none / filler=0 / ip_ratio=1.40 / pb_ratio=1.30 / aq=1:1.00
Язык : German
Default : Да
Forced : Нет
DURATION : 01:30:56.320000000
NUMBER_OF_FRAMES : 136408
NUMBER_OF_BYTES : 3149486348
_STATISTICS_WRITING_APP : mkvmerge v7.8.0 ('River Man') 64bit built on Mar 27 2015 16:31:37
_STATISTICS_WRITING_DATE_UTC : 2015-05-04 16:23:40
_STATISTICS_TAGS : BPS DURATION NUMBER_OF_FRAMES NUMBER_OF_BYTES
Аудио #1
Идентификатор : 2
Формат : AC-3
Формат/Информация : Audio Coding 3
Расширение режима : CM (complete main)
Параметр Endianness формата : Big
Идентификатор кодека : A_AC3
Продолжительность : 1 ч. 30 м.
Вид битрейта : Постоянный
Битрейт : 448 Кбит/сек
Каналы : 6 каналов
Расположение каналов : Front: L C R, Side: L R, LFE
Частота : 48,0 КГц
Битовая глубина : 16 бит
Метод сжатия : С потерями
Размер потока : 291 Мбайт (8%)
Заголовок : DVO
Язык : Russian
Default : Да
Forced : Нет
Аудио #2
Идентификатор : 3
Формат : AC-3
Формат/Информация : Audio Coding 3
Расширение режима : CM (complete main)
Параметр Endianness формата : Big
Идентификатор кодека : A_AC3
Продолжительность : 1 ч. 30 м.
Вид битрейта : Постоянный
Битрейт : 448 Кбит/сек
Каналы : 6 каналов
Расположение каналов : Front: L C R, Side: L R, LFE
Частота : 48,0 КГц
Битовая глубина : 16 бит
Метод сжатия : С потерями
Размер потока : 291 Мбайт (8%)
Заголовок : Original
Язык : German
Default : Нет
Forced : Нет
Текст
Идентификатор : 4
Формат : UTF-8
Идентификатор кодека : S_TEXT/UTF8
Идентификатор кодека/Информация : UTF-8 Plain Text
Заголовок : русские
Язык : Russian
Default : Нет
Forced : Нет





   Похожие торренты   Торрент   Размер 
В этой теме нет новых непрочитанных сообщений. Золото Рейна - лица одной реки / Rheingold: Gesichter eines Flusses (2014) BDRip AVC

89 | 7

2.52 ГБ

В этой теме нет новых непрочитанных сообщений. Золото Рейна - лица одной реки / Rheingold: Gesichter eines Flusses (2014) BDRip 1080p

31 | 14

11.1 ГБ

В этой теме нет новых непрочитанных сообщений. Золото Рейна - лица одной реки / Rheingold: Gesichter eines Flusses (2014) HDRip от GeneralFilm | P2

75 | 4

1.33 ГБ

В этой теме нет новых непрочитанных сообщений. Discovery. Золото льдов / Ледяное золото / Ice Cold Gold [S02] (2014) HDTVRip от GeneralFilm | P1

62 | 22

4.78 ГБ

В этой теме нет новых непрочитанных сообщений. Discovery: Золото льдов / Ледяное золото / Ice Cold Gold [02х01] (2014) SATRip от HitWay | P1

28 | 6

521.46 МБ

В этой теме нет новых непрочитанных сообщений. Золото льдов / Ледяное золото / Discovery: Ice Cold Gold [02х01-02] (2014) SATRip от HitWay | P1

27 | 14

1.01 ГБ

В этой теме нет новых непрочитанных сообщений. Золото льдов / Ледяное золото / Discovery: Ice Cold Gold [02х01-07] (2014) SATRip от HitWay | P1

12 | 6

3.54 ГБ




Вы не можете начинать темы
Вы не можете отвечать на сообщения
Вы не можете редактировать свои сообщения
Вы не можете удалять свои сообщения
Вы не можете добавлять вложения

Перейти:  
Для Мосгорсуда, Роскомнадзора и рекламодателей: mosgorsud-torrent[собачка]yandex.ru
 Вход
ppkBB3cker v.2 © 2008-2014 @ PPK
[ Time : 0.020s | 14 Queries | GZIP : Off ]

Торрент трекер RUTOR.IN, Не можете зайти на rutor.org? Какой новый адрес рутор? Какое зеркало рутор? Не работает rutor.org и зеркала? Тогда наш торрент специально для вас. Rutor.in неофициальное зеркало rutor. В случае если у Вас заблокирован rutor или вдруг Вы не можете на него зайти, то Вы без труда сможете скачать бесплатно и без рекламы последние новинки кино, игр, сериалов и прочего у нас, на Rutor.in. Не нужно использовать прокси, чтобы зайти на рутор, достаточно воспользоваться нашим ресурсом. Все новые фильмы, игры, сериалы, книги и музыка за 2013 и 2014 годы через торрент бесплатно. Скачивайте фильмы в хорошем качестве, игры для пк, xbox, playstation без регистрации. У нас вы найдете новые Зарубежные сериалы и Русские сериалы 2013, 2014, 2015 годов. Оставайтесь с нами, качайте любимые фильмы, игры, сериалы, книги и музыку.