img image001 image001 image001 image001 image001 image001 image001 image001 image001 image001 image001 image001 image001 image001 image001

Planets Sun Sun Sun
Статистика раздачи
Автор: Nickolas3434 | Размер: 12.65 ГБ | Добавлен: 11 май 2015
Раздают: 14    Качают: 3
Скачать торрент
Скачать торрент
Описание торрента

СообщениеДобавлено: 11 май 2015 


Название: Золотой Глобус: Нормандия и Бретань
Оригинальное название: Golden Globe: Normandy & Brittany
Год выпуска: 2011
Страна: Германия
Жанр: документальный
Продолжительность: 01:05:13+01:00:35
Перевод: профессиональный двухголосый
Режиссёр: Кристиан Оффенберг
Описание: У самих французов Нормандия обычно ассоциируется с тремя деликатесами, чьи названия начинаются с буквы «С»: сидром, кальвадосом и сыром камамбер. Но и бурные исторические события не миновали этот живописный край. На его берегах высятся памятники, напоминающие об июне 1944 года — дне одной из самых кровавых битв времён Второй мировой войны, поводом к которой послужила высадка войск союзников в Нормандии. Вдали от побережья живы и воспоминания о более древних временах...
Арморика и Аргоат — «страна, обращённая к морю» и «страна лесов» — так называли свою родину кельтские предки бретонцев. Леса и море до сегодняшнего дня являются самыми характерными атрибутами этого региона Франции. Для римлян он был Finis Terrae, то есть «концом Земли». Суровое, истерзанное волнами, зачастую скалистое побережье и переливающаяся тысячами красок материковая часть Бретани создают соблазнительный контраст, который поражает туристов со всего мира...
Качество: BDRip 1080p Сравнение с исходником
Формат: MKV
Видео: MPEG-4 AVC, 13.9 Mбит/с, 1920x1080, 25 кадра/с
Аудио 1: русский, AC3, 192 kbps, 2 ch, 48 kHz [профессиональный двухголосый, DVD R5]
Аудио 2: немецкий, AC3, 192 kbps, 2 ch, 48 kHz [оригинал]
frame I:636 Avg QP:17.19 size:263048
frame P:19392 Avg QP:18.44 size:138652
frame B:77820 Avg QP:20.72 size: 52342
Общее
Уникальный идентификатор : 226381073921069667686971293886515361672 (0xAA4F68AE5F5AA577ADD56B93AC19B788)
Полное имя : D:VideoЗолотой Глобус.Нормандия и Бретань.2011.BDRip.1080pЗолотой Глобус.Бретань.2011.BDRip.1080p.mkv
Формат : Matroska
Версия формата : Version 4 / Version 2
Размер файла : 6,02 Гбайт
Продолжительность : 1 ч. 0 м.
Общий поток : 14,2 Мбит/сек
Название фильма : BDRip -- STarankov
Дата кодирования : UTC 2015-05-07 02:50:20
Программа кодирования : mkvmerge v7.8.0 ('River Man') 64bit built on Mar 27 2015 16:31:37
Библиотека кодирования : libebml v1.3.1 + libmatroska v1.4.2
_STATISTICS_WRITING_APP : mkvmerge v7.8.0 ('River Man') 64bit built on Mar 27 2015 16:31:37
_STATISTICS_WRITING_DATE_UTC : 2015-05-07 02:50:20
_STATISTICS_TAGS : BPS DURATION NUMBER_OF_FRAMES NUMBER_OF_BYTES
DURATION : 01:00:35.776000000
NUMBER_OF_FRAMES : 113618
NUMBER_OF_BYTES : 87258624
Видео
Идентификатор : 1
Формат : AVC
Формат/Информация : Advanced Video Codec
Профиль формата : High@L4.1
Параметр CABAC формата : Да
Параметр ReFrames формата : 4 кадра
Идентификатор кодека : V_MPEG4/ISO/AVC
Продолжительность : 1 ч. 0 м.
Битрейт : 13,6 Мбит/сек
Ширина : 1920 пикселей
Высота : 1080 пикселей
Соотношение сторон : 16:9
Режим частоты кадров : Постоянный
Частота кадров : 25,000 кадров/сек
Цветовое пространство : YUV
Субдискретизация насыщенности : 4:2:0
Битовая глубина : 8 бит
Тип развёртки : Прогрессивная
Бит/(Пиксели*Кадры) : 0.262
Размер потока : 5,74 Гбайт (95%)
Библиотека кодирования : x264 core 146 r2538 121396c
Настройки программы : cabac=1 / ref=4 / deblock=1:-1:-1 / analyse=0x3:0x113 / me=umh / subme=10 / psy=1 / psy_rd=1.00:0.15 / mixed_ref=1 / me_range=32 / chroma_me=1 / trellis=2 / 8x8dct=1 / cqm=0 / deadzone=21,11 / fast_pskip=1 / chroma_qp_offset=-3 / threads=6 / lookahead_threads=1 / sliced_threads=0 / nr=0 / decimate=1 / interlaced=0 / bluray_compat=0 / constrained_intra=0 / bframes=12 / b_pyramid=2 / b_adapt=2 / b_bias=0 / direct=1 / weightb=1 / open_gop=0 / weightp=2 / keyint=240 / keyint_min=24 / scenecut=40 / intra_refresh=0 / rc_lookahead=40 / rc=crf / mbtree=0 / crf=18.0 / qcomp=0.60 / qpmin=0 / qpmax=69 / qpstep=4 / vbv_maxrate=40000 / vbv_bufsize=50000 / crf_max=0.0 / nal_hrd=none / filler=0 / ip_ratio=1.40 / pb_ratio=1.30 / aq=1:1.00
Язык : German
Default : Да
Forced : Нет
DURATION : 01:00:35.920000000
NUMBER_OF_FRAMES : 90898
NUMBER_OF_BYTES : 6291483393
_STATISTICS_WRITING_APP : mkvmerge v7.8.0 ('River Man') 64bit built on Mar 27 2015 16:31:37
_STATISTICS_WRITING_DATE_UTC : 2015-05-07 02:50:20
_STATISTICS_TAGS : BPS DURATION NUMBER_OF_FRAMES NUMBER_OF_BYTES
Аудио #1
Идентификатор : 2
Формат : AC-3
Формат/Информация : Audio Coding 3
Расширение режима : CM (complete main)
Параметр Endianness формата : Big
Идентификатор кодека : A_AC3
Продолжительность : 1 ч. 0 м.
Вид битрейта : Постоянный
Битрейт : 192 Кбит/сек
Каналы : 2 канала
Расположение каналов : Front: L R
Частота : 48,0 КГц
Битовая глубина : 16 бит
Метод сжатия : С потерями
Размер потока : 83,2 Мбайт (1%)
Заголовок : DVO (DVD R5)
Язык : Russian
Default : Да
Forced : Нет
Аудио #2
Идентификатор : 3
Формат : AC-3
Формат/Информация : Audio Coding 3
Расширение режима : CM (complete main)
Параметр Endianness формата : Big
Идентификатор кодека : A_AC3
Продолжительность : 1 ч. 0 м.
Вид битрейта : Постоянный
Битрейт : 192 Кбит/сек
Каналы : 2 канала
Расположение каналов : Front: L R
Частота : 48,0 КГц
Битовая глубина : 16 бит
Метод сжатия : С потерями
Размер потока : 83,2 Мбайт (1%)
Заголовок : Original
Язык : German
Default : Нет
Forced : Нет
Общее
Уникальный идентификатор : 182121167021548980621823107331075649818 (0x890342CAD30D260581CC319C66DCB11A)
Полное имя : D:VideoЗолотой Глобус.Нормандия и Бретань.2011.BDRip.1080pЗолотой Глобус.Нормандия.2011.BDRip.1080p.mkv
Формат : Matroska
Версия формата : Version 4 / Version 2
Размер файла : 6,63 Гбайт
Продолжительность : 1 ч. 5 м.
Общий поток : 14,5 Мбит/сек
Название фильма : BDRip -- STarankov
Дата кодирования : UTC 2015-05-08 01:29:58
Программа кодирования : mkvmerge v7.8.0 ('River Man') 64bit built on Mar 27 2015 16:31:37
Библиотека кодирования : libebml v1.3.1 + libmatroska v1.4.2
_STATISTICS_WRITING_APP : mkvmerge v7.8.0 ('River Man') 64bit built on Mar 27 2015 16:31:37
_STATISTICS_WRITING_DATE_UTC : 2015-05-08 01:29:58
_STATISTICS_TAGS : BPS DURATION NUMBER_OF_FRAMES NUMBER_OF_BYTES
DURATION : 01:05:13.920000000
NUMBER_OF_FRAMES : 122310
NUMBER_OF_BYTES : 93934080
Видео
Идентификатор : 1
Формат : AVC
Формат/Информация : Advanced Video Codec
Профиль формата : High@L4.1
Параметр CABAC формата : Да
Параметр ReFrames формата : 4 кадра
Идентификатор кодека : V_MPEG4/ISO/AVC
Продолжительность : 1 ч. 5 м.
Битрейт : 13,9 Мбит/сек
Ширина : 1920 пикселей
Высота : 1080 пикселей
Соотношение сторон : 16:9
Режим частоты кадров : Постоянный
Частота кадров : 25,000 кадров/сек
Цветовое пространство : YUV
Субдискретизация насыщенности : 4:2:0
Битовая глубина : 8 бит
Тип развёртки : Прогрессивная
Бит/(Пиксели*Кадры) : 0.268
Размер потока : 6,32 Гбайт (95%)
Библиотека кодирования : x264 core 146 r2538 121396c
Настройки программы : cabac=1 / ref=4 / deblock=1:-1:-1 / analyse=0x3:0x113 / me=umh / subme=10 / psy=1 / psy_rd=1.00:0.15 / mixed_ref=1 / me_range=32 / chroma_me=1 / trellis=2 / 8x8dct=1 / cqm=0 / deadzone=21,11 / fast_pskip=1 / chroma_qp_offset=-3 / threads=6 / lookahead_threads=1 / sliced_threads=0 / nr=0 / decimate=1 / interlaced=0 / bluray_compat=0 / constrained_intra=0 / bframes=12 / b_pyramid=2 / b_adapt=2 / b_bias=0 / direct=1 / weightb=1 / open_gop=0 / weightp=2 / keyint=250 / keyint_min=25 / scenecut=40 / intra_refresh=0 / rc_lookahead=40 / rc=crf / mbtree=0 / crf=18.0 / qcomp=0.60 / qpmin=0 / qpmax=69 / qpstep=4 / vbv_maxrate=62500 / vbv_bufsize=78125 / crf_max=0.0 / nal_hrd=none / filler=0 / ip_ratio=1.40 / pb_ratio=1.30 / aq=1:1.00
Язык : German
Default : Да
Forced : Нет
DURATION : 01:05:13.920000000
NUMBER_OF_FRAMES : 97848
NUMBER_OF_BYTES : 6929291519
_STATISTICS_WRITING_APP : mkvmerge v7.8.0 ('River Man') 64bit built on Mar 27 2015 16:31:37
_STATISTICS_WRITING_DATE_UTC : 2015-05-08 01:29:58
_STATISTICS_TAGS : BPS DURATION NUMBER_OF_FRAMES NUMBER_OF_BYTES
Аудио #1
Идентификатор : 2
Формат : AC-3
Формат/Информация : Audio Coding 3
Расширение режима : CM (complete main)
Параметр Endianness формата : Big
Идентификатор кодека : A_AC3
Продолжительность : 1 ч. 5 м.
Вид битрейта : Постоянный
Битрейт : 192 Кбит/сек
Каналы : 2 канала
Расположение каналов : Front: L R
Частота : 48,0 КГц
Битовая глубина : 16 бит
Метод сжатия : С потерями
Размер потока : 89,6 Мбайт (1%)
Заголовок : DVO (DVD R5)
Язык : Russian
Default : Да
Forced : Нет
Аудио #2
Идентификатор : 3
Формат : AC-3
Формат/Информация : Audio Coding 3
Расширение режима : CM (complete main)
Параметр Endianness формата : Big
Идентификатор кодека : A_AC3
Продолжительность : 1 ч. 5 м.
Вид битрейта : Постоянный
Битрейт : 192 Кбит/сек
Каналы : 2 канала
Расположение каналов : Front: L R
Частота : 48,0 КГц
Битовая глубина : 16 бит
Метод сжатия : С потерями
Размер потока : 89,6 Мбайт (1%)
Заголовок : Original
Язык : German
Default : Нет
Forced : Нет





   Похожие торренты   Торрент   Размер 
В этой теме нет новых непрочитанных сообщений. Золотой Глобус: Нормандия и Бретань / Golden Globe: Normandy & Brittany (2011) BDRip AVC

130 | 11

2.68 ГБ

В этой теме нет новых непрочитанных сообщений. Золотой Глобус: Нормандия и Бретань / Golden Globe: Normandy & Brittany (2011) BDRip 720p

76 | 22

4.3 ГБ

В этой теме нет новых непрочитанных сообщений. Золотой Глобус: Крит / Golden Globe: Crete (2011) BDRip 1080p

67 | 12

7.75 ГБ

В этой теме нет новых непрочитанных сообщений. Золотой Глобус: Бавария / Golden Globe: Bayern (2010) BDRip 1080p

31 | 17

10.56 ГБ

В этой теме нет новых непрочитанных сообщений. Золотой Глобус: Индия / Golden Globe: India (2010) BDRip 1080p

47 | 12

7.84 ГБ

В этой теме нет новых непрочитанных сообщений. Золотой Глобус: Крит / Golden Globe: Crete (2011) BDRip AVC

84 | 7

2.12 ГБ

В этой теме нет новых непрочитанных сообщений. Золотой Глобус: Азорские острова / Golden Globe: Azoren (2010) BDRip 1080p

27 | 5

9.48 ГБ




Вы не можете начинать темы
Вы не можете отвечать на сообщения
Вы не можете редактировать свои сообщения
Вы не можете удалять свои сообщения
Вы не можете добавлять вложения

Перейти:  
Для Мосгорсуда, Роскомнадзора и рекламодателей: mosgorsud-torrent[собачка]yandex.ru
 Вход
ppkBB3cker v.2 © 2008-2014 @ PPK
[ Time : 2.378s | 14 Queries | GZIP : On ]

Торрент трекер RUTOR.IN, Не можете зайти на rutor.org? Какой новый адрес рутор? Какое зеркало рутор? Не работает rutor.org и зеркала? Тогда наш торрент специально для вас. Rutor.in неофициальное зеркало rutor. В случае если у Вас заблокирован rutor или вдруг Вы не можете на него зайти, то Вы без труда сможете скачать бесплатно и без рекламы последние новинки кино, игр, сериалов и прочего у нас, на Rutor.in. Не нужно использовать прокси, чтобы зайти на рутор, достаточно воспользоваться нашим ресурсом. Все новые фильмы, игры, сериалы, книги и музыка за 2013 и 2014 годы через торрент бесплатно. Скачивайте фильмы в хорошем качестве, игры для пк, xbox, playstation без регистрации. У нас вы найдете новые Зарубежные сериалы и Русские сериалы 2013, 2014, 2015 годов. Оставайтесь с нами, качайте любимые фильмы, игры, сериалы, книги и музыку.