img image001 image001 image001 image001 image001 image001 image001 image001 image001 image001 image001 image001 image001 image001 image001

Planets Sun Sun Sun
Статистика раздачи
Автор: Nickolas3434 | Размер: 3.24 ГБ | Добавлен: 11 май 2015
Раздают: 56    Качают: 9
Скачать торрент
Скачать торрент
Описание торрента

СообщениеДобавлено: 11 май 2015 


Название: Золотой глобус: Прованс
Оригинальное название: Golden Globe: Provence
Год выпуска: 2009
Страна: Германия
Жанр: документальный
Продолжительность: 01:26:19
Перевод: профессиональный одноголосый
Режиссёр: Майкл Линдер
Описание: Прованс - это один из красивейших уголков Франции. В древние времена здесь жили греки и римляне. В неспокойные века Средневековья Прованс неоднократно переходил из рук в руки. Свидетельством бурной истории служат многочисленные укреплённые города. Прованс был краем рыцарей и трубадуров, пап и самозванцев, претендовавших на этот титул. С XIX века он стал излюбленной целью художников и аристократов. Его необычайно красочные пейзажи вдохновляли импрессионистов: Гогена, Сезанна и Ван Гога, создавших здесь свои величайшие произведения...
Качество: BDRip 720p Сравнение с исходником
Формат: MKV
Видео: MPEG-4 AVC, 4821 Кбит/с, 1280x720, 25 кадра/с
Аудио 1: русский, AC3, 192 kbps, 2 ch, 48 kHz [профессиональный одноголосый, DVD R5]
Аудио 2: немецкий, AC3, 256 kbps, 2 ch, 48 kHz [оригинал]
frame I:836 Avg QP:18.56 size:143002
frame P:24226 Avg QP:20.02 size: 53905
frame B:104436 Avg QP:22.21 size: 16894
Общее
Уникальный идентификатор : 172557576697610728714763171421363284782 (0x81D1616280B3B26A90E5C6BE7EFEAB2E)
Полное имя : D:VideoЗолотой Глобус.Прованс.2009.BDRip.720p.mkv
Формат : Matroska
Версия формата : Version 4 / Version 2
Размер файла : 3,24 Гбайт
Продолжительность : 1 ч. 26 м.
Общий поток : 5376 Кбит/сек
Название фильма : BDRip -- STarankov
Дата кодирования : UTC 2015-05-08 06:40:05
Программа кодирования : mkvmerge v7.8.0 ('River Man') 64bit built on Mar 27 2015 16:31:37
Библиотека кодирования : libebml v1.3.1 + libmatroska v1.4.2
_STATISTICS_WRITING_APP : mkvmerge v7.8.0 ('River Man') 64bit built on Mar 27 2015 16:31:37
_STATISTICS_WRITING_DATE_UTC : 2015-05-08 06:40:05
_STATISTICS_TAGS : BPS DURATION NUMBER_OF_FRAMES NUMBER_OF_BYTES
DURATION : 01:26:19.776000000
NUMBER_OF_FRAMES : 161868
NUMBER_OF_BYTES : 165752832
Видео
Идентификатор : 1
Формат : AVC
Формат/Информация : Advanced Video Codec
Профиль формата : High@L4.1
Параметр CABAC формата : Да
Параметр ReFrames формата : 9 кадров
Идентификатор кодека : V_MPEG4/ISO/AVC
Продолжительность : 1 ч. 26 м.
Битрейт : 4821 Кбит/сек
Ширина : 1280 пикселей
Высота : 720 пикселей
Соотношение сторон : 16:9
Режим частоты кадров : Постоянный
Частота кадров : 25,000 кадров/сек
Цветовое пространство : YUV
Субдискретизация насыщенности : 4:2:0
Битовая глубина : 8 бит
Тип развёртки : Прогрессивная
Бит/(Пиксели*Кадры) : 0.209
Размер потока : 2,91 Гбайт (90%)
Библиотека кодирования : x264 core 146 r2538 121396c
Настройки программы : cabac=1 / ref=9 / deblock=1:-1:-1 / analyse=0x3:0x113 / me=umh / subme=10 / psy=1 / psy_rd=1.00:0.15 / mixed_ref=1 / me_range=32 / chroma_me=1 / trellis=2 / 8x8dct=1 / cqm=0 / deadzone=21,11 / fast_pskip=1 / chroma_qp_offset=-3 / threads=6 / lookahead_threads=1 / sliced_threads=0 / nr=0 / decimate=1 / interlaced=0 / bluray_compat=0 / constrained_intra=0 / bframes=13 / b_pyramid=2 / b_adapt=2 / b_bias=0 / direct=1 / weightb=1 / open_gop=0 / weightp=2 / keyint=250 / keyint_min=25 / scenecut=40 / intra_refresh=0 / rc_lookahead=40 / rc=crf / mbtree=0 / crf=18.0 / qcomp=0.60 / qpmin=0 / qpmax=69 / qpstep=4 / vbv_maxrate=62500 / vbv_bufsize=78125 / crf_max=0.0 / nal_hrd=none / filler=0 / ip_ratio=1.40 / pb_ratio=1.30 / aq=1:1.00
Язык : German
Default : Да
Forced : Нет
DURATION : 01:26:19.920000000
NUMBER_OF_FRAMES : 129498
NUMBER_OF_BYTES : 3189765674
_STATISTICS_WRITING_APP : mkvmerge v7.8.0 ('River Man') 64bit built on Mar 27 2015 16:31:37
_STATISTICS_WRITING_DATE_UTC : 2015-05-08 06:40:05
_STATISTICS_TAGS : BPS DURATION NUMBER_OF_FRAMES NUMBER_OF_BYTES
Аудио #1
Идентификатор : 2
Формат : AC-3
Формат/Информация : Audio Coding 3
Расширение режима : CM (complete main)
Параметр Endianness формата : Big
Идентификатор кодека : A_AC3
Продолжительность : 1 ч. 26 м.
Вид битрейта : Постоянный
Битрейт : 192 Кбит/сек
Каналы : 2 канала
Расположение каналов : Front: L R
Частота : 48,0 КГц
Битовая глубина : 16 бит
Метод сжатия : С потерями
Размер потока : 119 Мбайт (4%)
Заголовок : VO (одноголосый закадровый, DVD R5)
Язык : Russian
Default : Да
Forced : Нет
Аудио #2
Идентификатор : 3
Формат : AC-3
Формат/Информация : Audio Coding 3
Расширение режима : CM (complete main)
Параметр Endianness формата : Big
Идентификатор кодека : A_AC3
Продолжительность : 1 ч. 26 м.
Вид битрейта : Постоянный
Битрейт : 256 Кбит/сек
Каналы : 2 канала
Расположение каналов : Front: L R
Частота : 48,0 КГц
Битовая глубина : 16 бит
Метод сжатия : С потерями
Размер потока : 158 Мбайт (5%)
Заголовок : Original
Язык : German
Default : Нет
Forced : Нет





   Похожие торренты   Торрент   Размер 
В этой теме нет новых непрочитанных сообщений. Золотой глобус: Прованс / Golden Globe: Provence (2009) BDRip AVC

57 | 25

2.06 ГБ

В этой теме нет новых непрочитанных сообщений. Золотой Глобус: Япония / Golden Globe: Japan (2009) BDRip 720p

14 | 84

4.76 ГБ

В этой теме нет новых непрочитанных сообщений. Золотой глобус: Швеция / Golden Globe: Sweden (2009) BDRip 720p

47 | 12

4.18 ГБ

В этой теме нет новых непрочитанных сообщений. Золотой глобус: Швеция / Golden Globe: Sweden (2009) BDRip AVC

24 | 5

2.64 ГБ

В этой теме нет новых непрочитанных сообщений. Золотой Глобус: Индия / Golden Globe: India (2010) BDRip 720p

35 | 5

3.24 ГБ

В этой теме нет новых непрочитанных сообщений. Золотой Глобус: Бавария / Golden Globe: Bayern (2010) BDRip 720p

76 | 7

4.31 ГБ

В этой теме нет новых непрочитанных сообщений. Золотой Глобус: Крит / Golden Globe: Crete (2011) BDRip 720p

108 | 16

3.32 ГБ




Вы не можете начинать темы
Вы не можете отвечать на сообщения
Вы не можете редактировать свои сообщения
Вы не можете удалять свои сообщения
Вы не можете добавлять вложения

Перейти:  
Для Мосгорсуда, Роскомнадзора и рекламодателей: mosgorsud-torrent[собачка]yandex.ru
 Вход
ppkBB3cker v.2 © 2008-2014 @ PPK
[ Time : 0.060s | 17 Queries | GZIP : Off ]

Торрент трекер RUTOR.IN, Не можете зайти на rutor.org? Какой новый адрес рутор? Какое зеркало рутор? Не работает rutor.org и зеркала? Тогда наш торрент специально для вас. Rutor.in неофициальное зеркало rutor. В случае если у Вас заблокирован rutor или вдруг Вы не можете на него зайти, то Вы без труда сможете скачать бесплатно и без рекламы последние новинки кино, игр, сериалов и прочего у нас, на Rutor.in. Не нужно использовать прокси, чтобы зайти на рутор, достаточно воспользоваться нашим ресурсом. Все новые фильмы, игры, сериалы, книги и музыка за 2013 и 2014 годы через торрент бесплатно. Скачивайте фильмы в хорошем качестве, игры для пк, xbox, playstation без регистрации. У нас вы найдете новые Зарубежные сериалы и Русские сериалы 2013, 2014, 2015 годов. Оставайтесь с нами, качайте любимые фильмы, игры, сериалы, книги и музыку.
cron