img image001 image001 image001 image001 image001 image001 image001 image001 image001 image001 image001 image001 image001 image001 image001

Planets Sun Sun Sun
Статистика раздачи
Автор: Nickolas3434 | Размер: 4.18 ГБ | Добавлен: 11 май 2015
Раздают: 47    Качают: 12
Скачать торрент
Скачать торрент
Описание торрента

СообщениеДобавлено: 11 май 2015 


Название: Золотой глобус: Швеция
Оригинальное название: Golden Globe: Sweden
Год выпуска: 2009
Страна: Германия
Жанр: документальный
Продолжительность: 01:33:04
Перевод: профессиональный одноголосый
Режиссёр: Ута Боденштейн
Описание: Незабываемые пейзажи, бескрайние просторы, атмосфера покоя, уюта и благополучия... Добро пожаловать в Швецию! Эта северная страна, известная нам по книгам Астрид Линдгрен и магазинам ИКЕА, таит в себе массу приятных сюрпризов. Наше путешествие мы начнем с Мальме, третьего по величине города королевства Швеция, где осмотрим чудесный исторический центр со зданиями XVI века...
Качество: BDRip 720p Сравнение с исходником
Формат: MKV
Видео: MPEG-4 AVC, 5856 Кбит/с, 1280x720, 25 кадра/с
Аудио 1: русский, AC3, 192 kbps, 2 ch, 48 kHz [профессиональный одноголосый, DVD R5]
Аудио 2: немецкий, AC3, 256 kbps, 2 ch, 48 kHz [оригинал]
frame I:1150 Avg QP:19.44 size:142342
frame P:26202 Avg QP:20.77 size: 61030
frame B:112249 Avg QP:22.44 size: 21491
Общее
Уникальный идентификатор : 240781893056724589409689336957048041256 (0xB524E7E1E1830C0B93BB1D986049AF28)
Полное имя : D:VideoЗолотой Глобус.Швеция.2009.BDRip.720p.mkv
Формат : Matroska
Версия формата : Version 4 / Version 2
Размер файла : 4,18 Гбайт
Продолжительность : 1 ч. 33 м.
Общий поток : 6432 Кбит/сек
Название фильма : BDRip -- STarankov
Дата кодирования : UTC 2015-05-09 02:13:55
Программа кодирования : mkvmerge v7.8.0 ('River Man') 64bit built on Mar 27 2015 16:31:37
Библиотека кодирования : libebml v1.3.1 + libmatroska v1.4.2
_STATISTICS_WRITING_APP : mkvmerge v7.8.0 ('River Man') 64bit built on Mar 27 2015 16:31:37
_STATISTICS_WRITING_DATE_UTC : 2015-05-09 02:13:55
_STATISTICS_TAGS : BPS DURATION NUMBER_OF_FRAMES NUMBER_OF_BYTES
DURATION : 01:33:04.032000000
NUMBER_OF_FRAMES : 174501
NUMBER_OF_BYTES : 178689024
Видео
Идентификатор : 1
Формат : AVC
Формат/Информация : Advanced Video Codec
Профиль формата : High@L4.1
Параметр CABAC формата : Да
Параметр ReFrames формата : 9 кадров
Идентификатор кодека : V_MPEG4/ISO/AVC
Продолжительность : 1 ч. 33 м.
Битрейт : 5856 Кбит/сек
Ширина : 1280 пикселей
Высота : 720 пикселей
Соотношение сторон : 16:9
Режим частоты кадров : Постоянный
Частота кадров : 25,000 кадров/сек
Цветовое пространство : YUV
Субдискретизация насыщенности : 4:2:0
Битовая глубина : 8 бит
Тип развёртки : Прогрессивная
Бит/(Пиксели*Кадры) : 0.254
Размер потока : 3,81 Гбайт (91%)
Библиотека кодирования : x264 core 146 r2538 121396c
Настройки программы : cabac=1 / ref=9 / deblock=1:-1:-1 / analyse=0x3:0x113 / me=umh / subme=10 / psy=1 / psy_rd=1.00:0.15 / mixed_ref=1 / me_range=32 / chroma_me=1 / trellis=2 / 8x8dct=1 / cqm=0 / deadzone=21,11 / fast_pskip=1 / chroma_qp_offset=-3 / threads=6 / lookahead_threads=1 / sliced_threads=0 / nr=0 / decimate=1 / interlaced=0 / bluray_compat=0 / constrained_intra=0 / bframes=11 / b_pyramid=2 / b_adapt=2 / b_bias=0 / direct=1 / weightb=1 / open_gop=0 / weightp=2 / keyint=250 / keyint_min=25 / scenecut=40 / intra_refresh=0 / rc_lookahead=40 / rc=crf / mbtree=0 / crf=18.5 / qcomp=0.60 / qpmin=0 / qpmax=69 / qpstep=4 / vbv_maxrate=62500 / vbv_bufsize=78125 / crf_max=0.0 / nal_hrd=none / filler=0 / ip_ratio=1.40 / pb_ratio=1.30 / aq=1:1.00
Язык : German
Default : Да
Forced : Нет
DURATION : 01:33:04.040000000
NUMBER_OF_FRAMES : 139601
NUMBER_OF_BYTES : 4175121377
_STATISTICS_WRITING_APP : mkvmerge v7.8.0 ('River Man') 64bit built on Mar 27 2015 16:31:37
_STATISTICS_WRITING_DATE_UTC : 2015-05-09 02:13:55
_STATISTICS_TAGS : BPS DURATION NUMBER_OF_FRAMES NUMBER_OF_BYTES
Аудио #1
Идентификатор : 2
Формат : AC-3
Формат/Информация : Audio Coding 3
Расширение режима : CM (complete main)
Параметр Endianness формата : Big
Идентификатор кодека : A_AC3
Продолжительность : 1 ч. 33 м.
Вид битрейта : Постоянный
Битрейт : 192 Кбит/сек
Каналы : 2 канала
Расположение каналов : Front: L R
Частота : 48,0 КГц
Битовая глубина : 16 бит
Метод сжатия : С потерями
Размер потока : 128 Мбайт (3%)
Заголовок : VO (DVD R5, профессиональный одноголосый)
Язык : Russian
Default : Да
Forced : Нет
Аудио #2
Идентификатор : 3
Формат : AC-3
Формат/Информация : Audio Coding 3
Расширение режима : CM (complete main)
Параметр Endianness формата : Big
Идентификатор кодека : A_AC3
Продолжительность : 1 ч. 33 м.
Вид битрейта : Постоянный
Битрейт : 256 Кбит/сек
Каналы : 2 канала
Расположение каналов : Front: L R
Частота : 48,0 КГц
Битовая глубина : 16 бит
Метод сжатия : С потерями
Размер потока : 170 Мбайт (4%)
Заголовок : Original
Язык : German
Default : Нет
Forced : Нет





   Похожие торренты   Торрент   Размер 
В этой теме нет новых непрочитанных сообщений. Золотой глобус: Швеция / Golden Globe: Sweden (2009) BDRip AVC

24 | 5

2.64 ГБ

В этой теме нет новых непрочитанных сообщений. Золотой глобус: Прованс / Golden Globe: Provence (2009) BDRip 720p

56 | 9

3.24 ГБ

В этой теме нет новых непрочитанных сообщений. Золотой Глобус: Япония / Golden Globe: Japan (2009) BDRip 720p

14 | 84

4.76 ГБ

В этой теме нет новых непрочитанных сообщений. Золотой глобус: Прованс / Golden Globe: Provence (2009) BDRip AVC

57 | 25

2.06 ГБ

В этой теме нет новых непрочитанных сообщений. Золотой Глобус: Индия / Golden Globe: India (2010) BDRip 720p

36 | 5

3.24 ГБ

В этой теме нет новых непрочитанных сообщений. Золотой Глобус: Крит / Golden Globe: Crete (2011) BDRip 720p

108 | 16

3.32 ГБ

В этой теме нет новых непрочитанных сообщений. Золотой Глобус: Бавария / Golden Globe: Bayern (2010) BDRip 720p

76 | 7

4.31 ГБ




Вы не можете начинать темы
Вы не можете отвечать на сообщения
Вы не можете редактировать свои сообщения
Вы не можете удалять свои сообщения
Вы не можете добавлять вложения

Перейти:  
Для Мосгорсуда, Роскомнадзора и рекламодателей: mosgorsud-torrent[собачка]yandex.ru
 Вход
ppkBB3cker v.2 © 2008-2014 @ PPK
[ Time : 2.168s | 15 Queries | GZIP : Off ]

cron