img image001 image001 image001 image001 image001 image001 image001 image001 image001 image001 image001 image001 image001 image001 image001

Planets Sun Sun Sun
Статистика раздачи
Автор: Nickolas3434 | Размер: 2.15 ГБ | Добавлен: 14 май 2015
Раздают: 76    Качают: 25
Скачать торрент
Скачать торрент
Описание торрента

СообщениеДобавлено: 14 май 2015 


Название: Золотой Глобус: Индия
Оригинальное название: Golden Globe: India
Год выпуска: 2010
Страна: Германия
Жанр: документальный
Продолжительность: 01:34:01
Перевод: профессиональный одноголосый
Описание: Полуостров Индостан врезается в океан огромным зелёным клином. Он поражает буйной растительностью, экзотическими пейзажами, захватывающей историей и красочными традициями. Воротами в самую популярную, южную часть Индии является Гоа - известный туристический регион, который в 60-х годах ХХ века был Меккой для хиппи...
Качество: BDRip AVC Сравнение с исходником
Формат: MKV
Видео: MPEG-4 AVC, 2756 Кбит/с, 1024x576, 25 кадра/с
Аудио 1: русский, AC3, 192 kbps, 2 ch, 48 kHz [профессиональный одноголосый, DVD R5]
Аудио 2: немецкий, AC3, 256 kbps, 2 ch, 48 kHz [оригинал]
frame I:1074 Avg QP:21.75 size: 88440
frame P:29464 Avg QP:23.55 size: 29509
frame B:110496 Avg QP:25.74 size: 9265
Общее
Уникальный идентификатор : 227697351783135207286518003835153127641 (0xAB4CEA30B48402529BE75AA39EAF98D9)
Полное имя : D:VideoЗолотой Глобус.Индия.2010.BDRip.AVC.mkv
Формат : Matroska
Версия формата : Version 4 / Version 2
Размер файла : 2,15 Гбайт
Продолжительность : 1 ч. 34 м.
Общий поток : 3269 Кбит/сек
Название фильма : BDRip -- STarankov
Дата кодирования : UTC 2015-05-12 12:10:20
Программа кодирования : mkvmerge v7.9.0 ('Birds') 64bit
Библиотека кодирования : libebml v1.3.1 + libmatroska v1.4.2
DURATION : 01:34:01.792000000
NUMBER_OF_FRAMES : 176306
NUMBER_OF_BYTES : 180537344
_STATISTICS_WRITING_APP : mkvmerge v7.9.0 ('Birds') 64bit
_STATISTICS_WRITING_DATE_UTC : 2015-05-12 12:10:20
_STATISTICS_TAGS : BPS DURATION NUMBER_OF_FRAMES NUMBER_OF_BYTES
Видео
Идентификатор : 1
Формат : AVC
Формат/Информация : Advanced Video Codec
Профиль формата : High@L4.1
Параметр CABAC формата : Да
Параметр ReFrames формата : 9 кадров
Идентификатор кодека : V_MPEG4/ISO/AVC
Продолжительность : 1 ч. 34 м.
Битрейт : 2756 Кбит/сек
Ширина : 1024 пикселя
Высота : 576 пикселей
Соотношение сторон : 16:9
Режим частоты кадров : Постоянный
Частота кадров : 25,000 кадров/сек
Цветовое пространство : YUV
Субдискретизация насыщенности : 4:2:0
Битовая глубина : 8 бит
Тип развёртки : Прогрессивная
Бит/(Пиксели*Кадры) : 0.187
Размер потока : 1,81 Гбайт (84%)
Библиотека кодирования : x264 core 146 r2538 121396c
Настройки программы : cabac=1 / ref=9 / deblock=1:-1:-1 / analyse=0x3:0x113 / me=umh / subme=10 / psy=1 / psy_rd=1.00:0.15 / mixed_ref=1 / me_range=32 / chroma_me=1 / trellis=2 / 8x8dct=1 / cqm=0 / deadzone=21,11 / fast_pskip=1 / chroma_qp_offset=-3 / threads=6 / lookahead_threads=1 / sliced_threads=0 / nr=0 / decimate=1 / interlaced=0 / bluray_compat=0 / constrained_intra=0 / bframes=8 / b_pyramid=2 / b_adapt=2 / b_bias=0 / direct=1 / weightb=1 / open_gop=0 / weightp=2 / keyint=250 / keyint_min=25 / scenecut=40 / intra_refresh=0 / rc_lookahead=40 / rc=crf / mbtree=0 / crf=20.0 / qcomp=0.60 / qpmin=0 / qpmax=69 / qpstep=4 / vbv_maxrate=40000 / vbv_bufsize=50000 / crf_max=0.0 / nal_hrd=none / filler=0 / ip_ratio=1.40 / pb_ratio=1.30 / aq=1:1.00
Язык : German
Default : Да
Forced : Нет
DURATION : 01:34:01.360000000
NUMBER_OF_FRAMES : 141034
NUMBER_OF_BYTES : 1988182460
_STATISTICS_WRITING_APP : mkvmerge v7.9.0 ('Birds') 64bit
_STATISTICS_WRITING_DATE_UTC : 2015-05-12 12:10:20
_STATISTICS_TAGS : BPS DURATION NUMBER_OF_FRAMES NUMBER_OF_BYTES
Аудио #1
Идентификатор : 2
Формат : AC-3
Формат/Информация : Audio Coding 3
Расширение режима : CM (complete main)
Параметр Endianness формата : Big
Идентификатор кодека : A_AC3
Продолжительность : 1 ч. 34 м.
Вид битрейта : Постоянный
Битрейт : 192 Кбит/сек
Каналы : 2 канала
Расположение каналов : Front: L R
Частота : 48,0 КГц
Битовая глубина : 16 бит
Метод сжатия : С потерями
Размер потока : 129 Мбайт (6%)
Заголовок : профессиональный одноголосый, DVD R5
Язык : Russian
Default : Да
Forced : Нет
Аудио #2
Идентификатор : 3
Формат : AC-3
Формат/Информация : Audio Coding 3
Расширение режима : CM (complete main)
Параметр Endianness формата : Big
Идентификатор кодека : A_AC3
Продолжительность : 1 ч. 34 м.
Вид битрейта : Постоянный
Битрейт : 256 Кбит/сек
Каналы : 2 канала
Расположение каналов : Front: L R
Частота : 48,0 КГц
Битовая глубина : 16 бит
Метод сжатия : С потерями
Размер потока : 172 Мбайт (8%)
Заголовок : Original
Язык : German
Default : Нет
Forced : Нет




   Похожие торренты   Торрент   Размер 
В этой теме нет новых непрочитанных сообщений. Золотой Глобус: Индия / Golden Globe: India (2010) BDRip 1080p

47 | 12

7.84 ГБ

В этой теме нет новых непрочитанных сообщений. Золотой Глобус: Индия / Golden Globe: India (2010) BDRip 720p

122 | 13

3.24 ГБ

В этой теме нет новых непрочитанных сообщений. Золотой Глобус: Бавария / Golden Globe: Bayern (2010) BDRip AVC

63 | 14

2.76 ГБ

В этой теме нет новых непрочитанных сообщений. Золотой Глобус: Бавария / Golden Globe: Bayern (2010) BDRip 1080p

31 | 17

10.56 ГБ

В этой теме нет новых непрочитанных сообщений. Золотой Глобус: Азорские острова / Golden Globe: Azoren (2010) BDRip AVC

73 | 16

2.42 ГБ

В этой теме нет новых непрочитанных сообщений. Золотой Глобус: Бавария / Golden Globe: Bayern (2010) BDRip 720p

116 | 16

4.31 ГБ

В этой теме нет новых непрочитанных сообщений. Золотой Глобус: Азорские острова / Golden Globe: Azoren (2010) BDRip 1080p

27 | 5

9.48 ГБ




Вы не можете начинать темы
Вы не можете отвечать на сообщения
Вы не можете редактировать свои сообщения
Вы не можете удалять свои сообщения
Вы не можете добавлять вложения

Перейти:  
Для Мосгорсуда, Роскомнадзора и рекламодателей: mosgorsud-torrent[собачка]yandex.ru
 Вход
ppkBB3cker v.2 © 2008-2014 @ PPK
[ Time : 0.553s | 14 Queries | GZIP : Off ]

Торрент трекер RUTOR.IN, Не можете зайти на rutor.org? Какой новый адрес рутор? Какое зеркало рутор? Не работает rutor.org и зеркала? Тогда наш торрент специально для вас. Rutor.in неофициальное зеркало rutor. В случае если у Вас заблокирован rutor или вдруг Вы не можете на него зайти, то Вы без труда сможете скачать бесплатно и без рекламы последние новинки кино, игр, сериалов и прочего у нас, на Rutor.in. Не нужно использовать прокси, чтобы зайти на рутор, достаточно воспользоваться нашим ресурсом. Все новые фильмы, игры, сериалы, книги и музыка за 2013 и 2014 годы через торрент бесплатно. Скачивайте фильмы в хорошем качестве, игры для пк, xbox, playstation без регистрации. У нас вы найдете новые Зарубежные сериалы и Русские сериалы 2013, 2014, 2015 годов. Оставайтесь с нами, качайте любимые фильмы, игры, сериалы, книги и музыку.