img image001 image001 image001 image001 image001 image001 image001 image001 image001 image001 image001 image001 image001 image001 image001

Planets Sun Sun Sun
Статистика раздачи
Автор: Nickolas3434 | Размер: 6.6 ГБ | Добавлен: 16 май 2015
Раздают: 50    Качают: 15
Скачать торрент
Скачать торрент
Описание торрента

СообщениеДобавлено: 16 май 2015 


Название: Бавария - Путешествие мечты
Оригинальное название: Bavaria - Traumreise durch Bayern
Год выхода: 2012
Жанр: Документальный, путешествие, туризм
Режиссер: Йозеф Вильсмайер
О фильме: Первый полнометражный документальный фильм, рассказывающий об обширной южно-восточной германской области — Баварии. Живописные, захватывающие дух виды, баварские города, старинные замки, церкви и монастыри с многовековой историей, показанные с высоты птичьего полета. Часто говорят, что Бавария — это не Германия, и отчасти так оно и есть. Во всяком случае, фильм «Бавария — Путешествие мечты» Йозефа Вильсмайера показывает этот край как самобытный, уникальный уголок нашей планеты.
Страна: Германия
Студия: Clasart Film- und Fernsehproduktion, Perathon Film-und Fernsehproduktions GmbH
Продолжительность: 01:33:18
Перевод: Дублированный
Кодек: MPEG-4 AVC
Качество: BDRip 720p
Видео: 1280x544, 6899 Кбит/с, 23.976 fps
Звук: Русский, английский (DTS, 6 ch, 1510 Кбит/с)
Субтитры: Русские, английские (названия достопримечательностей)
Семпл
General
Unique ID : 205599653067314415599185529802529431269 (0x9AAD0D86E8AF1D13B4C582A3595FDEE5)
Complete name : J:Bavaria.Traumreise.durch.Bayern.2012.x264.BDRip.(720p).mkv
Format : Matroska
Format version : Version 2
File size : 6.60 GiB
Duration : 1h 33mn
Overall bit rate : 10.1 Mbps
Movie name : Bavaria - Traumreise durch Bayern / 2012 / Rip by PowerRock / ExKinoRay
Encoded date : UTC 2015-05-14 06:08:56
Writing application : mkvmerge v7.8.0 ('River Man') 32bit built on Apr 3 2015 12:11:22
Writing library : libebml v1.3.1 + libmatroska v1.4.2
Attachements : cover.jpg
Video
ID : 1
Format : AVC
Format/Info : Advanced Video Codec
Format profile : High@L4.1
Format settings, CABAC : Yes
Format settings, ReFrames : 9 frames
Codec ID : V_MPEG4/ISO/AVC
Duration : 1h 33mn
Bit rate : 6 899 Kbps
Width : 1 280 pixels
Height : 544 pixels
Display aspect ratio : 2.35:1
Frame rate mode : Constant
Frame rate : 23.976 fps
Color space : YUV
Chroma subsampling : 4:2:0
Bit depth : 8 bits
Scan type : Progressive
Bits/(Pixel*Frame) : 0.413
Stream size : 4.50 GiB (68%)
Title : Bavaria - Traumreise durch Bayern / 2012
Writing library : x264 core 146 r2538 121396c
Encoding settings : cabac=1 / ref=9 / deblock=1:-2:-2 / analyse=0x3:0x113 / me=umh / subme=10 / psy=1 / psy_rd=1.00:0.00 / mixed_ref=1 / me_range=24 / chroma_me=1 / trellis=2 / 8x8dct=1 / cqm=0 / deadzone=21,11 / fast_pskip=0 / chroma_qp_offset=-2 / threads=6 / lookahead_threads=1 / sliced_threads=0 / nr=0 / decimate=1 / interlaced=0 / bluray_compat=0 / constrained_intra=0 / bframes=10 / b_pyramid=2 / b_adapt=2 / b_bias=0 / direct=1 / weightb=1 / open_gop=0 / weightp=2 / keyint=250 / keyint_min=23 / scenecut=40 / intra_refresh=0 / rc_lookahead=50 / rc=crf / mbtree=1 / crf=17.0 / qcomp=0.60 / qpmin=10 / qpmax=51 / qpstep=4 / vbv_maxrate=14000 / vbv_bufsize=14000 / crf_max=0.0 / nal_hrd=none / filler=0 / ip_ratio=1.40 / aq=1:1.00
Default : Yes
Forced : No
Audio #1
ID : 2
Format : DTS
Format/Info : Digital Theater Systems
Mode : 16
Format settings, Endianness : Big
Codec ID : A_DTS
Duration : 1h 33mn
Bit rate mode : Constant
Bit rate : 1 510 Kbps
Channel(s) : 6 channels
Channel positions : Front: L C R, Side: L R, LFE
Sampling rate : 48.0 KHz
Bit depth : 24 bits
Compression mode : Lossy
Stream size : 1 008 MiB (15%)
Title : ПО Алексеев М.
Language : Russian
Default : Yes
Forced : No
Audio #2
ID : 3
Format : DTS
Format/Info : Digital Theater Systems
Mode : 16
Format settings, Endianness : Big
Codec ID : A_DTS
Duration : 1h 33mn
Bit rate mode : Constant
Bit rate : 1 509 Kbps
Channel(s) : 6 channels
Channel positions : Front: L C R, Side: L R, LFE
Sampling rate : 48.0 KHz
Bit depth : 24 bits
Compression mode : Lossy
Stream size : 1 007 MiB (15%)
Language : English
Default : No
Forced : No
Text #1
ID : 4
Format : UTF-8
Codec ID : S_TEXT/UTF8
Codec ID/Info : UTF-8 Plain Text
Language : Russian
Default : Yes
Forced : No
Text #2
ID : 5
Format : UTF-8
Codec ID : S_TEXT/UTF8
Codec ID/Info : UTF-8 Plain Text
Language : English
Default : No
Forced : No
Menu
00:00:00.000 : :Chapter 01
00:08:04.650 : :Chapter 02
00:15:31.722 : :Chapter 03
00:22:11.413 : :Chapter 04
00:25:02.542 : :Chapter 05
00:29:45.909 : :Chapter 06
00:34:32.737 : :Chapter 07
00:47:15.040 : :Chapter 08
00:49:25.837 : :Chapter 09
00:53:16.526 : :Chapter 10
00:56:36.559 : :Chapter 11
01:03:03.529 : :Chapter 12
01:10:49.828 : :Chapter 13
01:18:21.279 : :Chapter 14
01:23:20.036 : :Chapter 15
01:28:00.525 : :Chapter 16




Релиз от:



   Похожие торренты   Торрент   Размер 
В этой теме нет новых непрочитанных сообщений. Бавария - Путешествие мечты / Bavaria - Traumreise durch Bayern (2012) BDRip 720p | D

86 | 23

4.71 ГБ

В этой теме нет новых непрочитанных сообщений. Бавария - Путешествие мечты / Bavaria - Traumreise durch Bayern (2012) BDRip 720p от denis 100 | P1

5 | 2

4.39 ГБ

В этой теме нет новых непрочитанных сообщений. Бавария - Путешествие мечты / Bavaria - Traumreise durch Bayern (2012) BDRip 1080p | Sub

8 | 1

7.7 ГБ

В этой теме нет новых непрочитанных сообщений. Бавария - Путешествие мечты / Bavaria - Traumreise durch Bayern (2012) BDRip от denis 100 | P1

25 | 2

1.36 ГБ

В этой теме нет новых непрочитанных сообщений. Бавария - Путешествие мечты / Bavaria - Traumreise durch Bayern (2012) BDRip 1080p от denis 100 | P1

7 | 3

7.77 ГБ

В этой теме нет новых непрочитанных сообщений. Золотой Глобус: Бавария / Golden Globe: Bayern (2010) BDRip 720p

116 | 16

4.31 ГБ

В этой теме нет новых непрочитанных сообщений. Золотой Глобус: Бавария / Golden Globe: Bayern (2010) BDRip AVC

63 | 14

2.76 ГБ




Вы не можете начинать темы
Вы не можете отвечать на сообщения
Вы не можете редактировать свои сообщения
Вы не можете удалять свои сообщения
Вы не можете добавлять вложения

Перейти:  
Для Мосгорсуда, Роскомнадзора и рекламодателей: mosgorsud-torrent[собачка]yandex.ru
 Вход
ppkBB3cker v.2 © 2008-2014 @ PPK
[ Time : 0.033s | 14 Queries | GZIP : Off ]

Торрент трекер RUTOR.IN, Не можете зайти на rutor.org? Какой новый адрес рутор? Какое зеркало рутор? Не работает rutor.org и зеркала? Тогда наш торрент специально для вас. Rutor.in неофициальное зеркало rutor. В случае если у Вас заблокирован rutor или вдруг Вы не можете на него зайти, то Вы без труда сможете скачать бесплатно и без рекламы последние новинки кино, игр, сериалов и прочего у нас, на Rutor.in. Не нужно использовать прокси, чтобы зайти на рутор, достаточно воспользоваться нашим ресурсом. Все новые фильмы, игры, сериалы, книги и музыка за 2013 и 2014 годы через торрент бесплатно. Скачивайте фильмы в хорошем качестве, игры для пк, xbox, playstation без регистрации. У нас вы найдете новые Зарубежные сериалы и Русские сериалы 2013, 2014, 2015 годов. Оставайтесь с нами, качайте любимые фильмы, игры, сериалы, книги и музыку.